<?xml version="1.0" standalone="no"?>
<!DOCTYPE svg PUBLIC "-//W3C//DTD SVG 1.1//EN" "http://www.w3.org/Graphics/SVG/1.1/DTD/svg11.dtd" >
<svg xmlns="http://www.w3.org/2000/svg" xmlns:xlink="http://www.w3.org/1999/xlink" version="1.1">
<metadata>
Created by FontForge 20170731 at Tue Mar  2 19:22:39 2021
 By Aleksey,,,
Copyright (c) 2000 The Hoefler Type Foundry, Inc., dba Hoefler &#38; Frere-Jones. All Rights Reserved.
</metadata>
<defs>
<font id="GothamPro-Light" horiz-adv-x="1024" >
  <font-face 
    font-family="Gotham Pro Light"
    font-weight="400"
    font-stretch="normal"
    units-per-em="2048"
    panose-1="2 0 5 3 3 0 0 2 0 4"
    ascent="1638"
    descent="-410"
    x-height="1044"
    cap-height="1434"
    bbox="-137 -438 2345 1839"
    underline-thickness="40"
    underline-position="-312"
    unicode-range="U+0020-FB04"
  />
<missing-glyph 
d="M0 0v1434h1024v-1434h-1024zM166 100h694l-348 523zM100 197l351 520l-351 520v-1040zM922 197v1040l-351 -520zM512 809l348 522h-694z" />
    <glyph glyph-name="fi" unicode="fi" horiz-adv-x="1251" 
d="M252 0v952h-152v92h152v103q0 180 92 272q82 82 219 82q85 0 156 -24v-95q-89 27 -156 27q-107 0 -159 -65t-52 -199v-101h365v-92h-365v-952h-100zM946 0v1044h101v-1044h-101zM934 1317v137h125v-137h-125z" />
    <glyph glyph-name="fl" unicode="fl" horiz-adv-x="1251" 
d="M252 0v952h-152v92h152v103q0 180 92 272q82 82 219 82q85 0 156 -24v-95q-89 27 -156 27q-107 0 -159 -65t-52 -199v-101h365v-92h-365v-952h-100zM946 0v1495h101v-1495h-101z" />
    <glyph glyph-name="ffi" unicode="ffi" horiz-adv-x="1992" 
d="M252 0v952h-152v92h152v103q0 180 92 272q82 82 219 82q85 0 156 -24v-95q-89 27 -156 27q-107 0 -159 -65t-52 -199v-101h365v-92h-365v-952h-100zM993 0v952h-151v92h151v103q0 180 92 272q82 82 220 82q85 0 155 -24v-95q-88 27 -155 27q-107 0 -159 -65t-52 -199
v-101h364v-92h-364v-952h-101zM1688 0v1044h100v-1044h-100zM1675 1317v137h125v-137h-125z" />
    <glyph glyph-name="ffl" unicode="ffl" horiz-adv-x="1992" 
d="M252 0v952h-152v92h152v103q0 180 92 272q82 82 219 82q85 0 156 -24v-95q-89 27 -156 27q-107 0 -159 -65t-52 -199v-101h365v-92h-365v-952h-100zM993 0v952h-151v92h151v103q0 180 92 272q82 82 220 82q85 0 155 -24v-95q-88 27 -155 27q-107 0 -159 -65t-52 -199
v-101h364v-92h-364v-952h-101zM1688 0v1495h100v-1495h-100z" />
    <glyph glyph-name=".notdef" 
d="M0 0v1434h1024v-1434h-1024zM166 100h694l-348 523zM100 197l351 520l-351 520v-1040zM922 197v1040l-351 -520zM512 809l348 522h-694z" />
    <glyph glyph-name=".null" horiz-adv-x="0" 
 />
    <glyph glyph-name="nonmarkingreturn" horiz-adv-x="682" 
 />
    <glyph glyph-name="space" unicode=" " horiz-adv-x="614" 
 />
    <glyph glyph-name="exclam" unicode="!" horiz-adv-x="516" 
d="M190 0v174h136v-174h-136zM229 375l-30 915v144h118v-144l-30 -915h-58z" />
    <glyph glyph-name="quotedbl" unicode="&#x22;" horiz-adv-x="839" 
d="M139 913l72 521h133v-11l-145 -510h-60zM508 913l72 521h133v-11l-146 -510h-59z" />
    <glyph glyph-name="numbersign" unicode="#" horiz-adv-x="1433" 
d="M283 0l65 383h-248v96h265l84 484h-267v96h283l63 375h99l-64 -375h424l64 375h98l-64 -375h246v-96h-262l-84 -484h264v-96h-280l-66 -383h-98l65 383h-424l-65 -383h-98zM463 479h424l84 484h-424z" />
    <glyph glyph-name="dollar" unicode="$" horiz-adv-x="1294" 
d="M608 -201v203q-265 23 -485 219l67 80q99 -93 200.5 -144t221.5 -61v582q-231 51 -332.5 141.5t-101.5 245.5q0 154 121.5 259.5t308.5 109.5v118h99v-122q114 -9 207 -50t188 -118l-68 -80q-151 134 -332 155v-575q233 -49 338 -141t105 -244q0 -161 -122 -265
t-316 -112v-201h-99zM702 92q152 4 245 82.5t93 198.5q0 73 -27.5 122.5t-102.5 90.5t-208 71v-565zM612 782v559q-147 -3 -238 -80.5t-91 -191.5q0 -107 69.5 -173.5t259.5 -113.5z" />
    <glyph glyph-name="percent" unicode="%" horiz-adv-x="1687" 
d="M262 0l1053 1434h110l-1052 -1434h-111zM1257 -16q-137 0 -225 107.5t-88 258.5q0 149 89.5 258t228.5 109q137 0 225 -108.5t88 -258.5q0 -149 -89.5 -257.5t-228.5 -108.5zM1262 72q90 0 148 79.5t58 198.5t-62 199t-149 80q-89 0 -147.5 -81t-58.5 -198
q0 -120 61.5 -199t149.5 -79zM426 717q-137 0 -225 107.5t-88 258.5q0 97 39 180.5t112.5 135t165.5 51.5q137 0 225 -108.5t88 -258.5q0 -149 -89 -257.5t-228 -108.5zM430 805q90 0 148.5 79.5t58.5 198.5t-62 199t-149 80q-90 0 -148.5 -81t-58.5 -198q0 -120 61.5 -199
t149.5 -79z" />
    <glyph glyph-name="ampersand" unicode="&#x26;" horiz-adv-x="1425" 
d="M1274 -29l-248 256q-211 -247 -485 -247q-191 0 -316 112t-125 289q0 142 96 248t275 172q-86 95 -123 169t-37 163q0 139 101.5 232t257.5 93q139 0 234 -91.5t95 -223.5q0 -249 -352 -371l377 -387q97 135 186 348l97 -39q-109 -242 -213 -381l264 -272zM543 72
q222 0 415 225l-423 438q-164 -57 -246 -149.5t-82 -204.5q0 -132 95 -220.5t241 -88.5zM584 838q309 99 309 305q0 95 -65 160t-162 65q-108 0 -178 -67t-70 -168q0 -68 35.5 -131t130.5 -164z" />
    <glyph glyph-name="quotesingle" unicode="'" horiz-adv-x="471" 
d="M139 913l72 521h133v-11l-145 -510h-60z" />
    <glyph glyph-name="parenleft" unicode="(" horiz-adv-x="880" 
d="M713 -289q-274 156 -421 379t-147 498q0 274 147 497t421 379l43 -67q-504 -310 -504 -809t504 -809z" />
    <glyph glyph-name="parenright" unicode=")" horiz-adv-x="880" 
d="M168 -289l-43 68q504 310 504 809t-504 809l43 67q274 -156 420.5 -378.5t146.5 -497.5t-146.5 -498t-420.5 -379z" />
    <glyph glyph-name="asterisk" unicode="*" horiz-adv-x="880" 
d="M397 831l19 261l-217 -148l-45 76l241 115l-241 114l45 76l217 -147l-19 260h86l-18 -260l217 147l45 -76l-242 -114l242 -115l-45 -76l-217 148l18 -261h-86z" />
    <glyph glyph-name="plus" unicode="+" horiz-adv-x="1310" 
d="M604 231v441h-444v98h444v440h103v-440h444v-98h-444v-441h-103z" />
    <glyph glyph-name="comma" unicode="," horiz-adv-x="471" 
d="M133 -219l-24 51q62 31 88 65t26 85v18h-55v174h135v-151q0 -95 -39 -151t-131 -91z" />
    <glyph glyph-name="hyphen" unicode="-" horiz-adv-x="835" 
d="M143 551v115h549v-115h-549z" />
    <glyph glyph-name="period" unicode="." horiz-adv-x="471" 
d="M168 0v174h135v-174h-135z" />
    <glyph glyph-name="slash" unicode="/" 
d="M-37 -262l967 1896h100l-967 -1896h-100z" />
    <glyph glyph-name="zero" unicode="0" horiz-adv-x="1454" 
d="M725 -25q-133 0 -245.5 60t-187.5 161.5t-117 236t-42 284.5q0 148 42.5 282.5t118 236t189 162t246.5 60.5t245.5 -59.5t187.5 -161t117 -236t42 -284.5q0 -148 -42.5 -282.5t-118 -236.5t-189 -162.5t-246.5 -60.5zM729 72q108 0 200 53.5t152.5 143t94.5 206t34 242.5
q0 125 -34.5 241.5t-96 206t-154 143.5t-200.5 54q-87 0 -164 -34.5t-134 -95.5t-99 -142t-63 -176.5t-21 -196.5q0 -125 34.5 -241t96 -206t154 -144t200.5 -54z" />
    <glyph glyph-name="one" unicode="1" horiz-adv-x="686" 
d="M367 0v1333l-277 -94l-29 84l328 121h82v-1444h-104z" />
    <glyph glyph-name="two" unicode="2" horiz-adv-x="1208" 
d="M98 0v80l535 483q178 162 247.5 269t69.5 221q0 136 -95 221.5t-228 85.5q-131 0 -228.5 -65t-191.5 -201l-80 53q50 76 98 129t108.5 95t136 62.5t167.5 20.5q183 0 304.5 -113.5t121.5 -283.5q0 -74 -19.5 -137t-66.5 -130.5t-109 -132.5t-163 -157l-439 -398h811v-102
h-979z" />
    <glyph glyph-name="three" unicode="3" horiz-adv-x="1249" 
d="M637 -25q-168 0 -301 69t-225 189l82 68q182 -229 446 -229q150 0 252 90t102 231q0 147 -123.5 229.5t-322.5 82.5h-78l-27 59l494 569h-752v101h897v-76l-485 -555q76 -5 145.5 -21t136.5 -48.5t116.5 -77.5t79.5 -113t30 -150q0 -121 -65 -218t-171.5 -148.5
t-230.5 -51.5z" />
    <glyph glyph-name="four" unicode="4" horiz-adv-x="1359" 
d="M911 0v350h-776l-37 80l820 1014h96v-1002h233v-92h-233v-350h-103zM227 442h684v848z" />
    <glyph glyph-name="five" unicode="5" horiz-adv-x="1239" 
d="M618 -25q-138 0 -269 64.5t-232 167.5l76 76q211 -211 430 -211q168 0 276.5 104.5t108.5 259.5q0 149 -110.5 244.5t-283.5 95.5q-158 0 -323 -90l-82 53l41 695h805v-103h-711l-35 -536q157 77 318 77q210 0 350.5 -122t140.5 -314q0 -202 -141.5 -331.5t-358.5 -129.5
z" />
    <glyph glyph-name="six" unicode="6" horiz-adv-x="1314" 
d="M678 -25q-108 0 -203.5 39t-161.5 105q-94 94 -138 220.5t-44 342.5t71 392t205 280t308 104q117 0 214.5 -42t198.5 -124l-67 -82q-87 76 -171.5 114t-182.5 38q-211 0 -340 -196.5t-129 -512.5v-35q158 267 448 267q130 0 242.5 -54.5t182 -156.5t69.5 -228
q0 -133 -66 -241t-181 -169t-255 -61zM686 72q170 0 276.5 107.5t106.5 266.5q0 149 -110 247t-279 98q-86 0 -161.5 -31t-127 -81t-81 -115t-29.5 -132q0 -154 116 -257t289 -103z" />
    <glyph glyph-name="seven" unicode="7" horiz-adv-x="1202" 
d="M319 0l652 1331h-832v103h951v-78l-654 -1356h-117z" />
    <glyph glyph-name="eight" unicode="8" horiz-adv-x="1290" 
d="M645 -20q-228 0 -380 114t-152 293q0 121 88 214.5t229 139.5q-118 48 -193 132.5t-75 205.5q0 108 69 195t179 133.5t235 46.5t234.5 -46.5t179 -134.5t69.5 -198q0 -119 -75 -202.5t-193 -131.5q142 -46 230 -140t88 -218q0 -117 -70.5 -209.5t-192 -143t-270.5 -50.5z
M645 76q192 0 307 89t115 218q0 132 -122.5 219.5t-299.5 87.5t-299.5 -88t-122.5 -223q0 -127 115.5 -215t306.5 -88zM645 780q156 0 264.5 83.5t108.5 215.5q0 121 -107.5 200t-265.5 79t-265.5 -80t-107.5 -203q0 -129 108.5 -212t264.5 -83z" />
    <glyph glyph-name="nine" unicode="9" horiz-adv-x="1314" 
d="M600 -25q-124 0 -227.5 47t-204.5 132l68 82q182 -164 366 -164q209 0 342 193t133 497v49q-154 -276 -446 -276q-215 0 -355.5 126.5t-140.5 315.5q0 202 142 341.5t362 139.5t365 -145q88 -88 134 -221.5t46 -341.5q0 -222 -76 -399.5t-209.5 -276.5t-298.5 -99z
M635 629q89 0 165 31.5t126.5 83.5t79 118t28.5 135q0 154 -115.5 259.5t-291.5 105.5q-86 0 -158.5 -31.5t-120.5 -85t-75 -123t-27 -145.5q0 -151 109.5 -249.5t279.5 -98.5z" />
    <glyph glyph-name="colon" unicode=":" horiz-adv-x="491" 
d="M178 0v174h135v-174h-135zM178 870v174h135v-174h-135z" />
    <glyph glyph-name="semicolon" unicode=";" horiz-adv-x="491" 
d="M143 -219l-24 51q62 31 88 65t26 85v18h-55v174h135v-151q0 -95 -39 -151t-131 -91zM178 870v174h135v-174h-135z" />
    <glyph glyph-name="less" unicode="&#x3c;" horiz-adv-x="1310" 
d="M1100 186l-950 494v82l950 493v-110l-826 -422l826 -426v-111z" />
    <glyph glyph-name="equal" unicode="=" horiz-adv-x="1310" 
d="M190 438v105h930v-105h-930zM190 899v105h930v-105h-930z" />
    <glyph glyph-name="greater" unicode="&#x3e;" horiz-adv-x="1310" 
d="M211 186v111l825 422l-825 426v110l950 -493v-82z" />
    <glyph glyph-name="question" unicode="?" horiz-adv-x="1093" 
d="M434 0v174h135v-174h-135zM469 375l-27 332l11 10q202 4 314 92.5t112 239.5q0 130 -93.5 219.5t-246.5 89.5q-225 0 -396 -211l-73 61q62 77 126.5 128.5t153 83.5t193.5 32q198 0 321 -116t123 -287q0 -92 -34 -167.5t-94 -126t-137.5 -82t-168.5 -42.5l-18 -256h-66z
" />
    <glyph glyph-name="at" unicode="@" horiz-adv-x="2007" 
d="M1022 -332q-129 0 -249.5 32.5t-220.5 90.5t-183 140.5t-140 180.5t-88.5 213t-31.5 236q0 181 70 346t189.5 286t286 193t351.5 72q184 0 350.5 -66.5t284.5 -177t187.5 -259t69.5 -308.5q0 -126 -33 -224.5t-88 -156t-119 -87t-132 -29.5q-106 0 -179 50.5t-100 139.5
q-72 -89 -155 -139.5t-195 -50.5q-152 0 -257 102t-105 262q0 106 42.5 202.5t110 163t153 105.5t171.5 39q114 0 189 -51.5t116 -130.5l29 153l98 -12l-76 -432q-18 -108 -18 -148q0 -87 48 -133.5t136 -46.5q56 0 107 25t94 74.5t68.5 133.5t25.5 191q0 140 -63 275
t-171 239t-263 168t-326 64q-174 0 -328.5 -66t-263.5 -178t-172.5 -265.5t-63.5 -322.5q0 -170 63 -322.5t173 -263.5t268 -176t340 -65q149 0 269 34t243 105l31 -51q-253 -154 -543 -154zM913 246q94 0 180 56.5t137.5 148t51.5 190.5q0 122 -76.5 203.5t-193.5 81.5
q-144 0 -257.5 -118.5t-113.5 -285.5q0 -128 75 -202t197 -74z" />
    <glyph glyph-name="A" unicode="A" horiz-adv-x="1617" 
d="M90 0l668 1444h102l668 -1444h-117l-182 401h-846l-182 -401h-111zM428 498h756l-377 829z" />
    <glyph glyph-name="B" unicode="B" horiz-adv-x="1478" 
d="M213 0v1434h592q211 0 338 -97t127 -260q0 -70 -21 -128t-58 -98.5t-77 -67.5t-88 -46q324 -85 324 -346q0 -179 -140.5 -285t-373.5 -106h-623zM319 98h521q185 0 293 79.5t108 217.5q0 133 -112.5 206t-323.5 73h-486v-576zM319 772h474q166 0 267 78t101 221
q0 120 -94.5 192t-263.5 72h-484v-563z" />
    <glyph glyph-name="C" unicode="C" horiz-adv-x="1511" 
d="M862 -25q-201 0 -365 98.5t-255.5 268t-91.5 375.5q0 201 91.5 370.5t257 270t367.5 100.5q93 0 172 -17t146 -51t119.5 -72.5t113.5 -94.5l-69 -72q-104 101 -219 156t-265 55q-127 0 -239 -50t-192 -135.5t-126.5 -205t-46.5 -254.5q0 -134 47 -253.5t127.5 -205.5
t193 -136t238.5 -50q149 0 264 55t230 168l72 -70q-125 -123 -258 -186.5t-312 -63.5z" />
    <glyph glyph-name="D" unicode="D" horiz-adv-x="1601" 
d="M213 0v1434h477q166 0 309 -55t242 -150.5t155 -228t56 -283.5q0 -150 -56 -282t-155 -228t-242 -151.5t-309 -55.5h-477zM319 98h371q146 0 269.5 48t206.5 131.5t129 197t46 242.5q0 127 -46 240t-129 196.5t-206.5 132.5t-269.5 49h-371v-1237z" />
    <glyph glyph-name="E" unicode="E" horiz-adv-x="1372" 
d="M213 0v1434h1020v-99h-914v-563h822v-98h-822v-576h924v-98h-1030z" />
    <glyph glyph-name="F" unicode="F" horiz-adv-x="1343" 
d="M213 0v1434h1010v-99h-904v-587h811v-99h-811v-649h-106z" />
    <glyph glyph-name="G" unicode="G" horiz-adv-x="1605" 
d="M870 -25q-166 0 -303 58.5t-227.5 159.5t-140 236t-49.5 288q0 145 51 279t141.5 236.5t225 164t290.5 61.5q167 0 288.5 -46.5t235.5 -141.5l-69 -80q-96 83 -203 127.5t-258 44.5q-170 0 -306.5 -88t-211 -235.5t-74.5 -321.5q0 -139 42.5 -257.5t120.5 -205
t194 -135.5t257 -49q130 0 252 46t205 117v412h-479v98h582v-553q-106 -94 -253 -154.5t-311 -60.5z" />
    <glyph glyph-name="H" unicode="H" horiz-adv-x="1556" 
d="M213 0v1434h106v-664h918v664h106v-1434h-106v672h-918v-672h-106z" />
    <glyph glyph-name="I" unicode="I" horiz-adv-x="561" 
d="M227 0v1434h107v-1434h-107z" />
    <glyph glyph-name="J" unicode="J" horiz-adv-x="1124" 
d="M510 -20q-285 0 -434 268l88 55q69 -117 149.5 -172t202.5 -55q137 0 224 100.5t87 282.5v975h107v-967q0 -242 -131 -373q-114 -114 -293 -114z" />
    <glyph glyph-name="K" unicode="K" horiz-adv-x="1464" 
d="M213 0v1434h106v-942l914 942h145l-626 -633l653 -801h-139l-590 725l-357 -360v-365h-106z" />
    <glyph glyph-name="L" unicode="L" horiz-adv-x="1267" 
d="M213 0v1434h106v-1336h842v-98h-948z" />
    <glyph glyph-name="M" unicode="M" horiz-adv-x="1777" 
d="M213 0v1434h100l576 -848l575 848h101v-1434h-107v1245l-567 -825h-8l-568 825v-1245h-102z" />
    <glyph glyph-name="N" unicode="N" horiz-adv-x="1617" 
d="M213 0v1434h100l990 -1248v1248h102v-1434h-80l-1010 1274v-1274h-102z" />
    <glyph glyph-name="O" unicode="O" horiz-adv-x="1740" 
d="M868 -25q-159 0 -295 60.5t-227.5 162.5t-143.5 236.5t-52 282.5q0 146 52.5 280.5t145 236.5t229.5 163t295 61q159 0 295 -60.5t228 -162t144 -236t52 -282.5q0 -146 -52.5 -280.5t-145.5 -237t-230 -163.5t-295 -61zM872 72q173 0 313.5 86.5t218 233.5t77.5 325
q0 131 -46.5 250t-127 205.5t-195 138t-244.5 51.5q-173 0 -313 -86.5t-217.5 -233.5t-77.5 -325q0 -176 78.5 -323.5t219.5 -234.5t314 -87z" />
    <glyph glyph-name="P" unicode="P" horiz-adv-x="1368" 
d="M213 0v1434h520q240 0 386.5 -118t146.5 -325q0 -110 -45 -198t-122.5 -143.5t-177.5 -85t-214 -29.5h-388v-535h-106zM319 633h394q201 0 323.5 97t122.5 259q0 166 -118 256t-316 90h-406v-702z" />
    <glyph glyph-name="Q" unicode="Q" horiz-adv-x="1740" 
d="M1532 -43l-201 182q-195 -164 -463 -164q-159 0 -295 60.5t-227.5 162.5t-143.5 236.5t-52 282.5q0 146 52.5 280.5t145 236.5t229.5 163t295 61q159 0 295 -60.5t228 -162t144 -236t52 -282.5q0 -143 -48.5 -274t-139.5 -232l205 -172zM872 72q220 0 381 135l-278 237
l76 84l274 -249q156 183 156 438q0 131 -46.5 250t-127 205.5t-195 138t-244.5 51.5q-173 0 -313 -86.5t-217.5 -233.5t-77.5 -325q0 -176 78.5 -323.5t219.5 -234.5t314 -87z" />
    <glyph glyph-name="R" unicode="R" horiz-adv-x="1480" 
d="M213 0v1434h602q129 0 233.5 -38t170.5 -104q108 -108 108 -270q0 -174 -115 -279t-305 -131l473 -612h-135l-457 594h-469v-594h-106zM319 690h484q185 0 301.5 88.5t116.5 243.5q0 146 -109 229.5t-303 83.5h-490v-645z" />
    <glyph glyph-name="S" unicode="S" horiz-adv-x="1310" 
d="M698 -20q-169 0 -307.5 56t-269.5 173l69 80q122 -112 241 -162.5t274 -50.5q160 0 261 81t101 208q0 80 -32.5 133t-122 96t-250.5 76q-259 53 -371.5 147.5t-112.5 259.5q0 161 131 269t330 108q152 0 265 -41.5t226 -132.5l-67 -84q-99 86 -202.5 124t-225.5 38
q-156 0 -253 -78.5t-97 -196.5q0 -81 32.5 -134.5t125 -99t259.5 -79.5q249 -51 360.5 -145t111.5 -254q0 -172 -134 -281.5t-342 -109.5z" />
    <glyph glyph-name="T" unicode="T" horiz-adv-x="1327" 
d="M610 0v1335h-499v99h1106v-99h-500v-1335h-107z" />
    <glyph glyph-name="U" unicode="U" horiz-adv-x="1556" 
d="M778 -23q-129 0 -237 41t-186 118t-121.5 194.5t-43.5 265.5v838h107v-828q0 -252 128.5 -392t356.5 -140q223 0 350.5 134t127.5 388v838h106v-826q0 -302 -160 -466.5t-428 -164.5z" />
    <glyph glyph-name="V" unicode="V" horiz-adv-x="1536" 
d="M721 -10l-631 1444h119l561 -1319l563 1319h113l-631 -1444h-94z" />
    <glyph glyph-name="W" unicode="W" horiz-adv-x="2256" 
d="M623 -10l-521 1444h119l451 -1276l420 1280h82l419 -1280l451 1276h110l-520 -1444h-86l-420 1245l-419 -1245h-86z" />
    <glyph glyph-name="X" unicode="X" horiz-adv-x="1478" 
d="M104 0l572 731l-551 703h127l489 -631l488 631h125l-549 -701l569 -733h-127l-510 662l-508 -662h-125z" />
    <glyph glyph-name="Y" unicode="Y" horiz-adv-x="1466" 
d="M680 0v567l-614 867h133l536 -770l539 770h127l-615 -865v-569h-106z" />
    <glyph glyph-name="Z" unicode="Z" horiz-adv-x="1409" 
d="M139 0v59l981 1278h-946v97h1098v-60l-981 -1278h981v-96h-1133z" />
    <glyph glyph-name="bracketleft" unicode="[" horiz-adv-x="880" 
d="M201 -266v1700h559v-78h-465v-1544h465v-78h-559z" />
    <glyph glyph-name="backslash" unicode="\" 
d="M961 -262l-967 1896h100l967 -1896h-100z" />
    <glyph glyph-name="bracketright" unicode="]" horiz-adv-x="880" 
d="M121 -266v78h465v1544h-465v78h559v-1700h-559z" />
    <glyph glyph-name="asciicircum" unicode="^" 
d="M143 1010l324 430h90l324 -430h-109l-262 342l-262 -342h-105z" />
    <glyph glyph-name="underscore" unicode="_" horiz-adv-x="1228" 
d="M-4 -328v90h1237v-90h-1237z" />
    <glyph glyph-name="grave" unicode="`" 
d="M541 1219l-219 211l124 61l181 -272h-86z" />
    <glyph glyph-name="a" unicode="a" horiz-adv-x="1175" 
d="M508 -25q-75 0 -146 21.5t-129 61.5t-93.5 104.5t-35.5 144.5q0 160 125.5 250t331.5 90q179 0 346 -45v45q0 156 -90.5 238t-253.5 82q-162 0 -327 -84l-37 88q195 90 370 90q215 0 330 -115q107 -107 107 -295v-651h-99v174q-62 -86 -162 -142.5t-237 -56.5zM514 70
q163 0 279 90.5t116 230.5v119q-180 47 -354 47q-163 0 -253.5 -67t-90.5 -181q0 -110 88.5 -174.5t214.5 -64.5z" />
    <glyph glyph-name="b" unicode="b" horiz-adv-x="1351" 
d="M721 -25q-266 0 -430 250v-225h-101v1495h101v-684q169 258 430 258q95 0 185.5 -38t162.5 -106t116 -173t44 -230q0 -123 -44 -228t-116 -173.5t-162.5 -107t-185.5 -38.5zM711 72q176 0 292.5 121t116.5 329q0 100 -33 185.5t-89 143t-130.5 90t-156.5 32.5
q-81 0 -158 -33.5t-136.5 -91.5t-95.5 -144t-36 -184q0 -129 61.5 -233.5t158.5 -159.5t206 -55z" />
    <glyph glyph-name="c" unicode="c" horiz-adv-x="1169" 
d="M651 -25q-148 0 -270.5 73.5t-192 199t-69.5 274.5q0 148 70 273.5t192.5 199.5t269.5 74q244 0 416 -195l-70 -71q-80 82 -160.5 127t-187.5 45q-114 0 -211 -60.5t-154 -165t-57 -227.5q0 -189 125 -320.5t305 -131.5q187 0 347 178l73 -66q-87 -99 -188.5 -153
t-237.5 -54z" />
    <glyph glyph-name="d" unicode="d" horiz-adv-x="1351" 
d="M631 -25q-95 0 -185.5 38t-162.5 106t-116 173t-44 230q0 123 44 228t116 173.5t162.5 107t185.5 38.5q266 0 430 -250v676h100v-1495h-100v233q-169 -258 -430 -258zM641 72q81 0 158 33t136.5 91t95.5 144t36 184q0 129 -61.5 233.5t-158.5 160t-206 55.5
q-176 0 -293 -121.5t-117 -329.5q0 -100 33.5 -185.5t89.5 -143t130.5 -89.5t156.5 -32z" />
    <glyph glyph-name="e" unicode="e" horiz-adv-x="1196" 
d="M631 -25q-102 0 -195.5 40t-163.5 110.5t-111.5 174t-41.5 224.5q0 112 38 212.5t103 173.5t157.5 116t196.5 43q143 0 253.5 -72.5t168.5 -196.5t58 -278q0 -25 -2 -41h-867q13 -188 131.5 -299.5t278.5 -111.5q206 0 358 163l70 -61q-88 -95 -189.5 -146t-242.5 -51z
M225 571h760q-5 81 -31 152.5t-71 129t-115.5 91t-157.5 33.5q-154 0 -262.5 -116t-122.5 -290z" />
    <glyph glyph-name="f" unicode="f" horiz-adv-x="741" 
d="M252 0v952h-152v92h152v103q0 180 92 272q82 82 219 82q85 0 156 -24v-95q-89 27 -156 27q-107 0 -159 -65t-52 -199v-101h365v-92h-365v-952h-100z" />
    <glyph glyph-name="g" unicode="g" horiz-adv-x="1351" 
d="M649 -332q-263 0 -479 160l59 82q193 -148 422 -148q186 0 298 105t112 301v151q-168 -241 -436 -241q-95 0 -185 35.5t-160.5 98t-113.5 157t-43 204.5q0 109 43 203.5t113.5 157.5t160.5 99t185 36q146 0 255 -65t181 -168v208h100v-882q0 -222 -133 -355
q-139 -139 -379 -139zM635 174q81 0 159 29t138.5 80t97.5 127.5t37 164.5q0 116 -63 209t-161 141t-208 48t-201.5 -47.5t-147 -140t-55.5 -212.5q0 -115 56 -207t148.5 -142t199.5 -50z" />
    <glyph glyph-name="h" unicode="h" horiz-adv-x="1255" 
d="M190 0v1495h101v-645q125 219 377 219q194 0 305.5 -119t111.5 -311v-639h-100v621q0 163 -88 259.5t-244 96.5q-155 0 -258.5 -105.5t-103.5 -267.5v-604h-101z" />
    <glyph glyph-name="i" unicode="i" horiz-adv-x="509" 
d="M205 0v1044h100v-1044h-100zM193 1317v137h124v-137h-124z" />
    <glyph glyph-name="j" unicode="j" horiz-adv-x="509" 
d="M82 -334q-43 0 -84 8v88q38 -6 82 -6q57 0 91 37.5t34 108.5v1142h100v-1136q0 -120 -59.5 -181t-163.5 -61zM193 1317v137h124v-137h-124z" />
    <glyph glyph-name="k" unicode="k" horiz-adv-x="1146" 
d="M190 0v1495h101v-1120l647 669h133l-457 -462l471 -582h-127l-413 510l-254 -256v-254h-101z" />
    <glyph glyph-name="l" unicode="l" horiz-adv-x="509" 
d="M205 0v1495h100v-1495h-100z" />
    <glyph glyph-name="m" unicode="m" horiz-adv-x="1947" 
d="M190 0v1044h101v-186q29 46 58 80t70.5 65.5t97 48.5t122.5 17q128 0 216.5 -62.5t135.5 -162.5q131 225 377 225q185 0 293 -119t108 -317v-633h-100v621q0 168 -82 262t-227 94q-138 0 -234 -100t-96 -269v-608h-100v627q0 162 -82.5 256t-222.5 94t-237 -108.5
t-97 -266.5v-602h-101z" />
    <glyph glyph-name="n" unicode="n" horiz-adv-x="1255" 
d="M190 0v1044h101v-194q125 219 377 219q194 0 305.5 -119t111.5 -311v-639h-100v621q0 163 -88 259.5t-244 96.5q-155 0 -258.5 -105.5t-103.5 -267.5v-604h-101z" />
    <glyph glyph-name="o" unicode="o" horiz-adv-x="1310" 
d="M653 -25q-113 0 -213 44t-170 118t-110.5 174.5t-40.5 210.5q0 109 41 209t111 174.5t171 119t215 44.5q151 0 274.5 -74.5t192 -200t68.5 -272.5q0 -146 -69 -271t-193.5 -200.5t-276.5 -75.5zM657 70q114 0 212 60.5t156 164.5t58 227q0 188 -126 320.5t-304 132.5
q-116 0 -214 -60.5t-155 -165t-57 -227.5q0 -189 124.5 -320.5t305.5 -131.5z" />
    <glyph glyph-name="p" unicode="p" horiz-adv-x="1351" 
d="M190 -328v1372h101v-233q169 258 430 258q95 0 185.5 -38t162.5 -106t116 -173t44 -230q0 -123 -44 -228t-116 -173.5t-162.5 -107t-185.5 -38.5q-266 0 -430 250v-553h-101zM711 72q176 0 292.5 121t116.5 329q0 100 -33 185.5t-89 143t-130.5 90t-156.5 32.5
q-81 0 -158 -33.5t-136.5 -91.5t-95.5 -144t-36 -184q0 -129 61.5 -233.5t158.5 -159.5t206 -55z" />
    <glyph glyph-name="q" unicode="q" horiz-adv-x="1351" 
d="M1061 -328v561q-169 -258 -430 -258q-95 0 -185.5 38t-162.5 106t-116 173t-44 230q0 123 44 228t116 173.5t162.5 107t185.5 38.5q266 0 430 -250v225h100v-1372h-100zM641 72q81 0 158 33t136.5 91t95.5 144t36 184q0 129 -61.5 233.5t-158.5 160t-206 55.5
q-176 0 -293 -121.5t-117 -329.5q0 -100 33.5 -185.5t89.5 -143t130.5 -89.5t156.5 -32z" />
    <glyph glyph-name="r" unicode="r" horiz-adv-x="819" 
d="M190 0v1044h101v-296q64 144 188 231.5t275 81.5v-111h-11q-92 0 -173 -34.5t-143.5 -98.5t-99 -164.5t-36.5 -224.5v-428h-101z" />
    <glyph glyph-name="s" unicode="s" horiz-adv-x="1017" 
d="M528 -20q-113 0 -228.5 41.5t-199.5 109.5l60 80q179 -137 375 -137q108 0 179.5 55t71.5 147q0 36 -16 65.5t-38.5 49.5t-62.5 38.5t-73.5 29.5t-85.5 26q-40 12 -57.5 17t-55.5 17.5t-56 21t-49.5 23.5t-47 28.5t-36.5 34t-31 42t-17.5 49t-7.5 58.5q0 126 96 207.5
t248 81.5q93 0 192 -31t178 -84l-53 -84q-160 105 -321 105q-106 0 -172 -52.5t-66 -134.5q0 -28 10 -52t33 -43t45 -33t62 -28.5t66.5 -23t74.5 -22.5q50 -14 85 -25.5t78.5 -30t72.5 -40.5t55.5 -50.5t39.5 -66.5t13 -84q0 -137 -103.5 -221t-257.5 -84z" />
    <glyph glyph-name="t" unicode="t" horiz-adv-x="819" 
d="M539 -18q-130 0 -211.5 72t-81.5 214v684h-152v92h152v334h100v-334h367v-92h-367v-673q0 -203 209 -203q73 0 154 37v-95q-76 -36 -170 -36z" />
    <glyph glyph-name="u" unicode="u" horiz-adv-x="1255" 
d="M588 -25q-194 0 -306 119.5t-112 311.5v638h100v-620q0 -163 88 -259.5t244 -96.5q155 0 259 105t104 267v604h100v-1044h-100v195q-125 -220 -377 -220z" />
    <glyph glyph-name="v" unicode="v" horiz-adv-x="1191" 
d="M553 -8l-469 1052h117l395 -931l399 931h113l-469 -1052h-86z" />
    <glyph glyph-name="w" unicode="w" horiz-adv-x="1763" 
d="M483 -8l-383 1052h113l315 -917l316 922h80l315 -922l315 917h109l-383 -1052h-86l-311 895l-314 -895h-86z" />
    <glyph glyph-name="x" unicode="x" horiz-adv-x="1167" 
d="M92 0l428 532l-411 512h124l353 -442l352 442h121l-412 -509l428 -535h-125l-368 465l-369 -465h-121z" />
    <glyph glyph-name="y" unicode="y" horiz-adv-x="1204" 
d="M317 -334q-104 0 -206 45l34 88q79 -39 179 -39q83 0 141.5 55.5t116.5 190.5l-502 1038h117l434 -933l377 933h110l-452 -1081q-67 -160 -150 -228.5t-199 -68.5z" />
    <glyph glyph-name="z" unicode="z" horiz-adv-x="1134" 
d="M119 0v57l753 897h-725v90h875v-57l-754 -897h754v-90h-903z" />
    <glyph glyph-name="braceleft" unicode="{" horiz-adv-x="983" 
d="M852 -289q-109 21 -186 50.5t-124.5 64.5t-75 83.5t-37 98.5t-9.5 119v162q0 129 -54.5 194.5t-191.5 65.5h-53v78h53q137 0 191.5 65.5t54.5 194.5v162q0 87 16.5 146.5t61.5 113.5t132 91.5t222 63.5l14 -65q-79 -20 -134.5 -39.5t-94.5 -44.5t-61.5 -49.5t-35 -61.5
t-16.5 -74t-4 -94v-153q0 -129 -54 -196t-159 -99q110 -36 161.5 -100.5t51.5 -194.5v-154q0 -57 4 -93.5t16.5 -74t35 -61.5t61.5 -49t94.5 -44.5t134.5 -39.5z" />
    <glyph glyph-name="bar" unicode="|" horiz-adv-x="585" 
d="M248 -262v1896h90v-1896h-90z" />
    <glyph glyph-name="braceright" unicode="}" horiz-adv-x="983" 
d="M131 -289l-14 66q79 20 134.5 39.5t94.5 44.5t61.5 49t35 61.5t16.5 74t4 93.5v154q0 129 54 196t159 99q-110 36 -161.5 100.5t-51.5 194.5v153q0 57 -4 94t-16.5 74t-35 61.5t-61.5 49.5t-94.5 44.5t-134.5 39.5l14 65q135 -26 222 -63.5t132 -91.5t61.5 -113.5
t16.5 -146.5v-162q0 -129 54.5 -194.5t191.5 -65.5h53v-78h-53q-137 0 -191.5 -65.5t-54.5 -194.5v-162q0 -69 -9.5 -119t-37 -98.5t-75 -83.5t-124.5 -64.5t-186 -50.5z" />
    <glyph glyph-name="asciitilde" unicode="~" horiz-adv-x="942" 
d="M238 496l-70 18q28 107 68 149t104 42q40 0 134 -42t128 -42q36 0 58 21.5t45 80.5l69 -18q-28 -107 -68 -149t-104 -42q-40 0 -134 42t-128 42q-36 0 -57 -21.5t-45 -80.5z" />
    <glyph glyph-name="uni00A0" unicode="&#xa0;" horiz-adv-x="614" 
 />
    <glyph glyph-name="exclamdown" unicode="&#xa1;" horiz-adv-x="516" 
d="M199 0v143l30 916h58l30 -916v-143h-118zM190 1260v174h136v-174h-136z" />
    <glyph glyph-name="cent" unicode="&#xa2;" horiz-adv-x="1189" 
d="M438 -12l45 223q-159 56 -257.5 198t-98.5 318q0 145 70 270.5t193 201t269 75.5h31l33 172h102l-37 -186q151 -37 289 -179l-71 -73q-59 61 -116 100.5t-126 56.5l-170 -884q40 -7 72 -7q193 0 350 175l69 -62q-87 -99 -188.5 -153t-237.5 -54q-39 0 -79 6l-39 -198
h-103zM508 305l168 875h-19q-178 0 -299.5 -131t-121.5 -322q0 -143 75 -257.5t197 -164.5z" />
    <glyph glyph-name="sterling" unicode="&#xa3;" horiz-adv-x="1318" 
d="M143 0v51l176 41v533h-176v98h176v242q0 236 134 370q119 119 307 119q149 0 250 -57t180 -160l-82 -63q-72 90 -151.5 137t-198.5 47q-144 0 -232 -88q-102 -102 -102 -303v-244h610v-98h-610v-529h766v-96h-1047z" />
    <glyph glyph-name="currency" unicode="&#xa4;" horiz-adv-x="1474" 
d="M877 -25q-210 0 -364.5 144.5t-207.5 382.5h-184v98h170q-6 56 -6 117q0 70 10 135h-174v98h192q57 224 206 366t343 142q87 0 162 -21t134.5 -61.5t105.5 -90t90 -114.5l-82 -55q-59 85 -114 136.5t-130 81.5t-170 30q-152 0 -270 -114t-170 -300h581v-98h-600
q-10 -62 -10 -135q0 -59 6 -117h604v-98h-585q48 -195 174 -313.5t295 -118.5q126 0 221 67.5t176 194.5l78 -51q-94 -144 -208.5 -225t-272.5 -81z" />
    <glyph glyph-name="yen" unicode="&#xa5;" horiz-adv-x="1404" 
d="M651 0v256h-436v92h436v201h-436v92h399l-548 793h129l510 -764l512 764h122l-551 -793h402v-92h-436v-201h436v-92h-436v-256h-103z" />
    <glyph glyph-name="brokenbar" unicode="&#xa6;" horiz-adv-x="454" 
d="M283 842h-111v512h111v-512zM283 -182h-111v512h111v-512z" />
    <glyph glyph-name="section" unicode="&#xa7;" horiz-adv-x="1294" 
d="M674 -20q-133 0 -255.5 52.5t-209.5 141.5l78 74q75 -76 177 -122t220 -46q117 0 177.5 45t60.5 117q0 67 -84 117t-291 100q-228 55 -321 120.5t-93 168.5q0 90 82 152t221 79q-176 78 -176 219q0 115 99 185.5t262 70.5q133 0 255 -52.5t209 -141.5l-77 -74
q-75 76 -177.5 122t-220.5 46q-117 0 -177 -44.5t-60 -117.5q0 -67 84 -117t291 -100q228 -55 320.5 -120.5t92.5 -168.5q0 -90 -82 -152t-221 -79q176 -78 176 -219q0 -116 -98.5 -186t-261.5 -70zM791 518q116 0 190 48.5t74 115.5q0 40 -26 71.5t-99 65.5t-197 64
q-125 32 -229 32q-116 0 -190 -48t-74 -115q0 -40 26 -71.5t98.5 -65.5t196.5 -64q127 -33 230 -33z" />
    <glyph glyph-name="dieresis" unicode="&#xa8;" 
d="M274 1219v163h142v-163h-142zM608 1219v163h142v-163h-142z" />
    <glyph glyph-name="copyright" unicode="&#xa9;" horiz-adv-x="1699" 
d="M848 -25q-204 0 -374.5 100t-267.5 270.5t-97 371.5q0 149 58 285.5t157 236.5t237 159.5t291 59.5t290.5 -59t235.5 -158.5t155.5 -236t57.5 -287.5q0 -149 -58 -285.5t-157 -237t-237 -160t-291 -59.5zM848 33q191 0 348 92.5t245.5 250.5t88.5 345q0 186 -88 341.5
t-244 247t-346 91.5q-191 0 -348 -92.5t-245.5 -250.5t-88.5 -345q0 -186 88 -341.5t244 -247t346 -91.5zM858 340q-157 0 -265 113.5t-108 275.5q0 158 109 272.5t266 114.5q92 0 158 -32t131 -93l-62 -63q-110 106 -229 106q-121 0 -202 -89t-81 -218q0 -125 83.5 -215
t201.5 -90q71 0 124.5 25.5t111.5 80.5l57 -57q-67 -65 -134.5 -98t-160.5 -33z" />
    <glyph glyph-name="ordfeminine" unicode="&#xaa;" horiz-adv-x="798" 
d="M127 600v82h516v-82h-516zM356 842q-91 0 -157 49.5t-66 138.5t70 140t184 51q80 0 170 -23v10q0 77 -45.5 117.5t-124.5 40.5q-77 0 -180 -49l-27 69q115 54 211 54q118 0 184 -66q58 -58 58 -164v-356h-76v84q-73 -96 -201 -96zM360 915q80 0 138.5 44.5t58.5 113.5v55
q-77 23 -174 23q-65 0 -116.5 -30t-51.5 -91q0 -53 42 -84t103 -31z" />
    <glyph glyph-name="guillemotleft" unicode="&#xab;" horiz-adv-x="1054" 
d="M432 86l-328 428v16l328 428l76 -49l-281 -385l281 -389zM850 86l-328 428v16l328 428l76 -49l-281 -385l281 -389z" />
    <glyph glyph-name="logicalnot" unicode="&#xac;" horiz-adv-x="1310" 
d="M1120 530h-102v369h-828v105h930v-474z" />
    <glyph glyph-name="uni00AD" unicode="&#xad;" horiz-adv-x="835" 
d="M143 551v115h549v-115h-549z" />
    <glyph glyph-name="registered" unicode="&#xae;" horiz-adv-x="1699" 
d="M848 -25q-204 0 -374.5 100t-267.5 270.5t-97 371.5q0 149 58 285.5t157 236.5t237 159.5t291 59.5t290.5 -59t235.5 -158.5t155.5 -236t57.5 -287.5q0 -149 -58 -285.5t-157 -237t-237 -160t-291 -59.5zM848 33q191 0 348 92.5t245.5 250.5t88.5 345q0 186 -88 341.5
t-244 247t-346 91.5q-191 0 -348 -92.5t-245.5 -250.5t-88.5 -345q0 -186 88 -341.5t244 -247t346 -91.5zM565 362v750h336q143 0 219 -76q58 -58 58 -143q0 -88 -55 -142.5t-150 -72.5l250 -316h-115l-242 302h-213v-302h-88zM653 745h234q88 0 143 38.5t55 109.5
q0 62 -50.5 98.5t-137.5 36.5h-244v-283z" />
    <glyph glyph-name="macron" unicode="&#xaf;" 
d="M205 1229v108h614v-108h-614z" />
    <glyph glyph-name="degree" unicode="&#xb0;" horiz-adv-x="921" 
d="M461 844q-122 0 -215.5 90.5t-93.5 212.5q0 119 93.5 209t215.5 90t215.5 -90.5t93.5 -212.5q0 -119 -93.5 -209t-215.5 -90zM461 934q88 0 147.5 63.5t59.5 149.5q0 84 -60 146.5t-147 62.5q-88 0 -147.5 -63.5t-59.5 -149.5q0 -84 60 -146.5t147 -62.5z" />
    <glyph glyph-name="plusminus" unicode="&#xb1;" horiz-adv-x="1310" 
d="M1165 602h-454v-364h-109v364h-455v98h455v363h109v-363h454v-98zM1165 45h-1018v98h1018v-98z" />
    <glyph glyph-name="twosuperior" unicode="&#xb2;" 
d="M0 0v1434h1024v-1434h-1024zM166 100h694l-348 523zM100 197l351 520l-351 520v-1040zM922 197v1040l-351 -520zM512 809l348 522h-694z" />
    <glyph glyph-name="threesuperior" unicode="&#xb3;" 
d="M0 0v1434h1024v-1434h-1024zM166 100h694l-348 523zM100 197l351 520l-351 520v-1040zM922 197v1040l-351 -520zM512 809l348 522h-694z" />
    <glyph glyph-name="acute" unicode="&#xb4;" 
d="M397 1219l181 272l124 -61l-219 -211h-86z" />
    <glyph glyph-name="mu" unicode="&#xb5;" horiz-adv-x="1275" 
d="M608 -25q-114 0 -188.5 46.5t-128.5 128.5v-478h-101v1372h101v-620q0 -163 88 -259.5t244 -96.5q155 0 258.5 105t103.5 267v604h100v-1044h-100v195q-125 -220 -377 -220z" />
    <glyph glyph-name="mu" unicode="&#x3bc;" horiz-adv-x="1275" 
d="M608 -25q-114 0 -188.5 46.5t-128.5 128.5v-478h-101v1372h101v-620q0 -163 88 -259.5t244 -96.5q155 0 258.5 105t103.5 267v604h100v-1044h-100v195q-125 -220 -377 -220z" />
    <glyph glyph-name="paragraph" unicode="&#xb6;" horiz-adv-x="983" 
d="M682 0v567h-12q-159 0 -285 49.5t-201 150t-75 237.5q0 198 147 314t383 116h152v-1434h-109z" />
    <glyph glyph-name="periodcentered" unicode="&#xb7;" horiz-adv-x="471" 
d="M168 522v174h135v-174h-135z" />
    <glyph glyph-name="cedilla" unicode="&#xb8;" 
d="M444 -303l-112 53l184 270h88z" />
    <glyph glyph-name="onesuperior" unicode="&#xb9;" 
d="M0 0v1434h1024v-1434h-1024zM166 100h694l-348 523zM100 197l351 520l-351 520v-1040zM922 197v1040l-351 -520zM512 809l348 522h-694z" />
    <glyph glyph-name="ordmasculine" unicode="&#xba;" horiz-adv-x="798" 
d="M104 600v82h590v-82h-590zM397 842q-126 0 -209.5 88t-83.5 213q0 124 85 212.5t212 88.5q126 0 209.5 -88t83.5 -213q0 -124 -85 -212.5t-212 -88.5zM401 922q90 0 147.5 63.5t57.5 157.5q0 93 -60 157t-149 64t-146.5 -63.5t-57.5 -157.5q0 -93 59.5 -157t148.5 -64z
" />
    <glyph glyph-name="guillemotright" unicode="&#xbb;" horiz-adv-x="1054" 
d="M205 86l-76 49l281 385l-281 389l76 49l327 -428v-16zM623 86l-76 49l280 385l-280 389l76 49l327 -428v-16z" />
    <glyph glyph-name="onequarter" unicode="&#xbc;" 
d="M0 0v1434h1024v-1434h-1024zM166 100h694l-348 523zM100 197l351 520l-351 520v-1040zM922 197v1040l-351 -520zM512 809l348 522h-694z" />
    <glyph glyph-name="onehalf" unicode="&#xbd;" 
d="M0 0v1434h1024v-1434h-1024zM166 100h694l-348 523zM100 197l351 520l-351 520v-1040zM922 197v1040l-351 -520zM512 809l348 522h-694z" />
    <glyph glyph-name="threequarters" unicode="&#xbe;" 
d="M0 0v1434h1024v-1434h-1024zM166 100h694l-348 523zM100 197l351 520l-351 520v-1040zM922 197v1040l-351 -520zM512 809l348 522h-694z" />
    <glyph glyph-name="questiondown" unicode="&#xbf;" horiz-adv-x="1093" 
d="M551 -18q-198 0 -321.5 116t-123.5 287q0 92 34 167.5t94.5 126t138 82t168.5 42.5l18 256h66l26 -332l-10 -10q-202 -4 -314 -92.5t-112 -239.5q0 -130 93.5 -219.5t246.5 -89.5q224 0 395 211l74 -62q-95 -118 -207 -180.5t-266 -62.5zM524 1260v174h135v-174h-135z
" />
    <glyph glyph-name="Agrave" unicode="&#xc0;" horiz-adv-x="1617" 
d="M90 0l668 1444h102l668 -1444h-117l-182 401h-846l-182 -401h-111zM428 498h756l-377 829zM758 1567l-219 211l125 61l180 -272h-86z" />
    <glyph glyph-name="Aacute" unicode="&#xc1;" horiz-adv-x="1617" 
d="M90 0l668 1444h102l668 -1444h-117l-182 401h-846l-182 -401h-111zM428 498h756l-377 829zM774 1567l180 272l125 -61l-219 -211h-86z" />
    <glyph glyph-name="Acircumflex" unicode="&#xc2;" horiz-adv-x="1617" 
d="M90 0l668 1444h102l668 -1444h-117l-182 401h-846l-182 -401h-111zM428 498h756l-377 829zM563 1556l205 250h82l205 -250h-97l-151 140l-152 -140h-92z" />
    <glyph glyph-name="Atilde" unicode="&#xc3;" horiz-adv-x="1617" 
d="M90 0l668 1444h102l668 -1444h-117l-182 401h-846l-182 -401h-111zM428 498h756l-377 829zM575 1548l-69 19q28 107 68 148.5t104 41.5q40 0 134 -42t128 -42q36 0 57 22t45 81l70 -19q-28 -107 -68 -148.5t-104 -41.5q-40 0 -134 42t-128 42q-36 0 -57.5 -22t-45.5 -81z
" />
    <glyph glyph-name="Adieresis" unicode="&#xc4;" horiz-adv-x="1617" 
d="M90 0l668 1444h102l668 -1444h-117l-182 401h-846l-182 -401h-111zM428 498h756l-377 829zM571 1567v164h142v-164h-142zM905 1567v164h142v-164h-142z" />
    <glyph glyph-name="Aring" unicode="&#xc5;" horiz-adv-x="1617" 
d="M90 0l641 1386q-54 24 -88.5 72.5t-34.5 108.5q0 77 60.5 133.5t140.5 56.5q81 0 141 -56.5t60 -137.5q0 -57 -34.5 -104.5t-88.5 -69.5l641 -1389h-117l-182 401h-846l-182 -401h-111zM428 498h756l-377 829zM809 1438q51 0 89 38t38 91q0 51 -37.5 88t-89.5 37
q-53 0 -90 -37.5t-37 -91.5q0 -51 38 -88t89 -37z" />
    <glyph glyph-name="AE" unicode="&#xc6;" horiz-adv-x="2140" 
d="M41 0l868 1434h1092v-99h-883v-563h791v-98h-791v-576h893v-98h-999v401h-615l-241 -401h-115zM455 498h557v839h-54z" />
    <glyph glyph-name="Ccedilla" unicode="&#xc7;" horiz-adv-x="1511" 
d="M752 -303l-113 53l156 227q-185 17 -332.5 118.5t-230 264.5t-82.5 357q0 201 91.5 370.5t257 270t367.5 100.5q179 0 306.5 -58t250.5 -171l-75 -78q-104 101 -219 156t-265 55q-127 0 -239 -50t-192 -135.5t-126.5 -205t-46.5 -254.5q0 -134 47 -253.5t127.5 -205.5
t193 -136t238.5 -50q149 0 264 55t230 168l72 -70q-119 -118 -246.5 -181t-296.5 -69z" />
    <glyph glyph-name="Egrave" unicode="&#xc8;" horiz-adv-x="1372" 
d="M213 0v1434h1020v-99h-914v-563h822v-98h-822v-576h924v-98h-1030zM715 1567l-219 211l125 61l180 -272h-86z" />
    <glyph glyph-name="Eacute" unicode="&#xc9;" horiz-adv-x="1372" 
d="M213 0v1434h1020v-99h-914v-563h822v-98h-822v-576h924v-98h-1030zM633 1567l180 272l125 -61l-219 -211h-86z" />
    <glyph glyph-name="Ecircumflex" unicode="&#xca;" horiz-adv-x="1372" 
d="M213 0v1434h1020v-99h-914v-563h822v-98h-822v-576h924v-98h-1030zM469 1567l205 250h82l205 -250h-97l-151 139l-152 -139h-92z" />
    <glyph glyph-name="Edieresis" unicode="&#xcb;" horiz-adv-x="1372" 
d="M213 0v1434h1020v-99h-914v-563h822v-98h-822v-576h924v-98h-1030zM477 1567v164h141v-164h-141zM811 1567v164h141v-164h-141z" />
    <glyph glyph-name="Igrave" unicode="&#xcc;" horiz-adv-x="561" 
d="M227 0v1434h107v-1434h-107zM233 1567l-219 211l125 61l180 -272h-86z" />
    <glyph glyph-name="Iacute" unicode="&#xcd;" horiz-adv-x="561" 
d="M227 0v1434h107v-1434h-107zM242 1567l180 272l125 -61l-219 -211h-86z" />
    <glyph glyph-name="Icircumflex" unicode="&#xce;" horiz-adv-x="561" 
d="M227 0v1434h107v-1434h-107zM37 1567l205 250h82l204 -250h-96l-151 139l-152 -139h-92z" />
    <glyph glyph-name="Idieresis" unicode="&#xcf;" horiz-adv-x="561" 
d="M227 0v1434h107v-1434h-107zM45 1567v164h141v-164h-141zM379 1567v164h141v-164h-141z" />
    <glyph glyph-name="Eth" unicode="&#xd0;" horiz-adv-x="1662" 
d="M274 0v672h-153v98h153v664h478q221 0 395.5 -94t270 -257t95.5 -366q0 -150 -56 -282t-155 -228t-241.5 -151.5t-308.5 -55.5h-478zM381 98h371q146 0 269.5 48t206.5 131.5t129 197t46 242.5q0 127 -46 240t-129 196.5t-206.5 132.5t-269.5 49h-371v-565h475v-98h-475
v-574z" />
    <glyph glyph-name="Ntilde" unicode="&#xd1;" horiz-adv-x="1617" 
d="M213 0v1434h100l990 -1248v1248h102v-1434h-80l-1010 1274v-1274h-102zM575 1548l-69 19q28 107 68 148.5t104 41.5q40 0 134 -42t128 -42q36 0 57 22t45 81l70 -19q-28 -107 -68 -148.5t-104 -41.5q-40 0 -134 42t-128 42q-36 0 -57.5 -22t-45.5 -81z" />
    <glyph glyph-name="Ograve" unicode="&#xd2;" horiz-adv-x="1740" 
d="M868 -25q-159 0 -295 60.5t-227.5 162.5t-143.5 236.5t-52 282.5q0 146 52.5 280.5t145 236.5t229.5 163t295 61q159 0 295 -60.5t228 -162t144 -236t52 -282.5q0 -146 -52.5 -280.5t-145.5 -237t-230 -163.5t-295 -61zM872 72q173 0 313.5 86.5t218 233.5t77.5 325
q0 131 -46.5 250t-127 205.5t-195 138t-244.5 51.5q-173 0 -313 -86.5t-217.5 -233.5t-77.5 -325q0 -176 78.5 -323.5t219.5 -234.5t314 -87zM817 1567l-219 211l125 61l180 -272h-86z" />
    <glyph glyph-name="Oacute" unicode="&#xd3;" horiz-adv-x="1740" 
d="M868 -25q-159 0 -295 60.5t-227.5 162.5t-143.5 236.5t-52 282.5q0 146 52.5 280.5t145 236.5t229.5 163t295 61q159 0 295 -60.5t228 -162t144 -236t52 -282.5q0 -146 -52.5 -280.5t-145.5 -237t-230 -163.5t-295 -61zM872 72q173 0 313.5 86.5t218 233.5t77.5 325
q0 131 -46.5 250t-127 205.5t-195 138t-244.5 51.5q-173 0 -313 -86.5t-217.5 -233.5t-77.5 -325q0 -176 78.5 -323.5t219.5 -234.5t314 -87zM838 1567l180 272l125 -61l-219 -211h-86z" />
    <glyph glyph-name="Ocircumflex" unicode="&#xd4;" horiz-adv-x="1740" 
d="M868 -25q-159 0 -295 60.5t-227.5 162.5t-143.5 236.5t-52 282.5q0 146 52.5 280.5t145 236.5t229.5 163t295 61q159 0 295 -60.5t228 -162t144 -236t52 -282.5q0 -146 -52.5 -280.5t-145.5 -237t-230 -163.5t-295 -61zM872 72q173 0 313.5 86.5t218 233.5t77.5 325
q0 131 -46.5 250t-127 205.5t-195 138t-244.5 51.5q-173 0 -313 -86.5t-217.5 -233.5t-77.5 -325q0 -176 78.5 -323.5t219.5 -234.5t314 -87zM625 1567l204 250h82l205 -250h-96l-152 139l-151 -139h-92z" />
    <glyph glyph-name="Otilde" unicode="&#xd5;" horiz-adv-x="1740" 
d="M868 -25q-159 0 -295 60.5t-227.5 162.5t-143.5 236.5t-52 282.5q0 146 52.5 280.5t145 236.5t229.5 163t295 61q159 0 295 -60.5t228 -162t144 -236t52 -282.5q0 -146 -52.5 -280.5t-145.5 -237t-230 -163.5t-295 -61zM872 72q173 0 313.5 86.5t218 233.5t77.5 325
q0 131 -46.5 250t-127 205.5t-195 138t-244.5 51.5q-173 0 -313 -86.5t-217.5 -233.5t-77.5 -325q0 -176 78.5 -323.5t219.5 -234.5t314 -87zM637 1548l-70 19q28 107 68 148.5t104 41.5q40 0 134 -42t128 -42q36 0 57.5 22t45.5 81l70 -19q-28 -107 -68.5 -148.5
t-104.5 -41.5q-40 0 -134 42t-128 42q-36 0 -57 -22t-45 -81z" />
    <glyph glyph-name="Odieresis" unicode="&#xd6;" horiz-adv-x="1740" 
d="M868 -25q-159 0 -295 60.5t-227.5 162.5t-143.5 236.5t-52 282.5q0 146 52.5 280.5t145 236.5t229.5 163t295 61q159 0 295 -60.5t228 -162t144 -236t52 -282.5q0 -146 -52.5 -280.5t-145.5 -237t-230 -163.5t-295 -61zM872 72q173 0 313.5 86.5t218 233.5t77.5 325
q0 131 -46.5 250t-127 205.5t-195 138t-244.5 51.5q-173 0 -313 -86.5t-217.5 -233.5t-77.5 -325q0 -176 78.5 -323.5t219.5 -234.5t314 -87zM633 1567v164h141v-164h-141zM967 1567v164h141v-164h-141z" />
    <glyph glyph-name="multiply" unicode="&#xd7;" horiz-adv-x="1310" 
d="M1133 315l-76 -75l-404 405l-401 -405l-76 75l404 404l-404 403l76 76l401 -405l404 405l76 -76l-404 -403z" />
    <glyph glyph-name="Oslash" unicode="&#xd8;" horiz-adv-x="1740" 
d="M868 -25q-272 0 -467 168l-145 -153h-123l205 217q-91 101 -139.5 232.5t-48.5 277.5t52.5 280.5t145 236.5t229.5 163t295 61q273 0 467 -170l146 156h123l-205 -217q91 -101 139.5 -232.5t48.5 -277.5t-52.5 -280.5t-145.5 -237t-230 -163.5t-295 -61zM872 72
q173 0 313.5 86.5t218 233.5t77.5 325q0 248 -152 430l-858 -922q166 -153 401 -153zM412 287l858 921q-167 154 -402 154q-173 0 -313 -86.5t-217.5 -233.5t-77.5 -325q0 -248 152 -430z" />
    <glyph glyph-name="Ugrave" unicode="&#xd9;" horiz-adv-x="1556" 
d="M778 -23q-129 0 -237 41t-186 118t-121.5 194.5t-43.5 265.5v838h107v-828q0 -252 128.5 -392t356.5 -140q223 0 350.5 134t127.5 388v838h106v-826q0 -302 -160 -466.5t-428 -164.5zM743 1556l-219 211l125 62l180 -273h-86z" />
    <glyph glyph-name="Uacute" unicode="&#xda;" horiz-adv-x="1556" 
d="M778 -23q-129 0 -237 41t-186 118t-121.5 194.5t-43.5 265.5v838h107v-828q0 -252 128.5 -392t356.5 -140q223 0 350.5 134t127.5 388v838h106v-826q0 -302 -160 -466.5t-428 -164.5zM727 1556l180 273l125 -62l-219 -211h-86z" />
    <glyph glyph-name="Ucircumflex" unicode="&#xdb;" horiz-adv-x="1556" 
d="M778 -23q-129 0 -237 41t-186 118t-121.5 194.5t-43.5 265.5v838h107v-828q0 -252 128.5 -392t356.5 -140q223 0 350.5 134t127.5 388v838h106v-826q0 -302 -160 -466.5t-428 -164.5zM532 1556l205 250h82l205 -250h-96l-152 140l-151 -140h-93z" />
    <glyph glyph-name="Udieresis" unicode="&#xdc;" horiz-adv-x="1556" 
d="M778 -23q-129 0 -237 41t-186 118t-121.5 194.5t-43.5 265.5v838h107v-828q0 -252 128.5 -392t356.5 -140q223 0 350.5 134t127.5 388v838h106v-826q0 -302 -160 -466.5t-428 -164.5zM541 1556v164h141v-164h-141zM874 1556v164h142v-164h-142z" />
    <glyph glyph-name="Yacute" unicode="&#xdd;" horiz-adv-x="1466" 
d="M680 0v567l-614 867h133l536 -770l539 770h127l-615 -865v-569h-106zM696 1556l181 273l124 -62l-219 -211h-86z" />
    <glyph glyph-name="Thorn" unicode="&#xde;" horiz-adv-x="1378" 
d="M213 0v1434h106v-260h414q240 0 386.5 -118t146.5 -325q0 -110 -45 -198.5t-122.5 -144.5t-178 -86t-213.5 -30h-388v-272h-106zM319 371h394q200 0 323 98t123 260q0 166 -118 256t-316 90h-406v-704z" />
    <glyph glyph-name="germandbls" unicode="&#xdf;" horiz-adv-x="1269" 
d="M592 -4v88q207 5 323.5 81.5t116.5 221.5q0 134 -115.5 212.5t-324.5 100.5v84q348 106 348 363q0 117 -85 192.5t-220 75.5q-151 0 -247.5 -106.5t-96.5 -284.5v-1024h-101v1024q0 216 123 350.5t328 134.5q182 0 295 -103t113 -259q0 -72 -27.5 -136t-74 -112
t-102 -83.5t-118.5 -57.5q85 -15 156 -43t130.5 -71.5t93.5 -109.5t34 -147q0 -184 -147 -287.5t-402 -103.5z" />
    <glyph glyph-name="agrave" unicode="&#xe0;" horiz-adv-x="1175" 
d="M508 -25q-75 0 -146 21.5t-129 61.5t-93.5 104.5t-35.5 144.5q0 160 125.5 250t331.5 90q179 0 346 -45v45q0 156 -90.5 238t-253.5 82q-162 0 -327 -84l-37 88q195 90 370 90q215 0 330 -115q107 -107 107 -295v-651h-99v174q-62 -86 -162 -142.5t-237 -56.5zM514 70
q163 0 279 90.5t116 230.5v119q-180 47 -354 47q-163 0 -253.5 -67t-90.5 -181q0 -110 88.5 -174.5t214.5 -64.5zM541 1219l-219 211l124 61l181 -272h-86z" />
    <glyph glyph-name="aacute" unicode="&#xe1;" horiz-adv-x="1175" 
d="M508 -25q-75 0 -146 21.5t-129 61.5t-93.5 104.5t-35.5 144.5q0 160 125.5 250t331.5 90q179 0 346 -45v45q0 156 -90.5 238t-253.5 82q-162 0 -327 -84l-37 88q195 90 370 90q215 0 330 -115q107 -107 107 -295v-651h-99v174q-62 -86 -162 -142.5t-237 -56.5zM514 70
q163 0 279 90.5t116 230.5v119q-180 47 -354 47q-163 0 -253.5 -67t-90.5 -181q0 -110 88.5 -174.5t214.5 -64.5zM524 1219l181 272l124 -61l-219 -211h-86z" />
    <glyph glyph-name="acircumflex" unicode="&#xe2;" horiz-adv-x="1175" 
d="M508 -25q-75 0 -146 21.5t-129 61.5t-93.5 104.5t-35.5 144.5q0 160 125.5 250t331.5 90q179 0 346 -45v45q0 156 -90.5 238t-253.5 82q-162 0 -327 -84l-37 88q195 90 370 90q215 0 330 -115q107 -107 107 -295v-651h-99v174q-62 -86 -162 -142.5t-237 -56.5zM514 70
q163 0 279 90.5t116 230.5v119q-180 47 -354 47q-163 0 -253.5 -67t-90.5 -181q0 -110 88.5 -174.5t214.5 -64.5zM348 1219l205 249h82l205 -249h-97l-151 139l-152 -139h-92z" />
    <glyph glyph-name="atilde" unicode="&#xe3;" horiz-adv-x="1175" 
d="M508 -25q-75 0 -146 21.5t-129 61.5t-93.5 104.5t-35.5 144.5q0 160 125.5 250t331.5 90q179 0 346 -45v45q0 156 -90.5 238t-253.5 82q-162 0 -327 -84l-37 88q195 90 370 90q215 0 330 -115q107 -107 107 -295v-651h-99v174q-62 -86 -162 -142.5t-237 -56.5zM514 70
q163 0 279 90.5t116 230.5v119q-180 47 -354 47q-163 0 -253.5 -67t-90.5 -181q0 -110 88.5 -174.5t214.5 -64.5zM360 1200l-69 19q28 107 68 148.5t104 41.5q40 0 134 -42t128 -42q36 0 57 21.5t45 80.5l70 -18q-28 -107 -68 -148.5t-104 -41.5q-40 0 -134 42t-128 42
q-36 0 -57.5 -22t-45.5 -81z" />
    <glyph glyph-name="adieresis" unicode="&#xe4;" horiz-adv-x="1175" 
d="M508 -25q-75 0 -146 21.5t-129 61.5t-93.5 104.5t-35.5 144.5q0 160 125.5 250t331.5 90q179 0 346 -45v45q0 156 -90.5 238t-253.5 82q-162 0 -327 -84l-37 88q195 90 370 90q215 0 330 -115q107 -107 107 -295v-651h-99v174q-62 -86 -162 -142.5t-237 -56.5zM514 70
q163 0 279 90.5t116 230.5v119q-180 47 -354 47q-163 0 -253.5 -67t-90.5 -181q0 -110 88.5 -174.5t214.5 -64.5zM356 1219v163h142v-163h-142zM690 1219v163h141v-163h-141z" />
    <glyph glyph-name="aring" unicode="&#xe5;" horiz-adv-x="1175" 
d="M508 -25q-75 0 -146 21.5t-129 61.5t-93.5 104.5t-35.5 144.5q0 160 125.5 250t331.5 90q179 0 346 -45v45q0 156 -90.5 238t-253.5 82q-162 0 -327 -84l-37 88q195 90 370 90q215 0 330 -115q107 -107 107 -295v-651h-99v174q-62 -86 -162 -142.5t-237 -56.5zM514 70
q163 0 279 90.5t116 230.5v119q-180 47 -354 47q-163 0 -253.5 -67t-90.5 -181q0 -110 88.5 -174.5t214.5 -64.5zM594 1214q-81 0 -141 57t-60 138q0 77 60.5 133.5t140.5 56.5q81 0 141 -56.5t60 -137.5q0 -77 -60.5 -134t-140.5 -57zM594 1280q52 0 89.5 38t37.5 91
q0 51 -37.5 88t-89.5 37q-53 0 -90 -37.5t-37 -91.5q0 -51 38 -88t89 -37z" />
    <glyph glyph-name="ae" unicode="&#xe6;" horiz-adv-x="1953" 
d="M498 -25q-74 0 -143.5 21.5t-126 61.5t-90.5 104.5t-34 144.5q0 160 123 250t324 90q161 0 328 -45v45q0 157 -86 238.5t-244 81.5q-148 0 -313 -84l-37 88q97 46 178 68t178 22q157 0 258.5 -66.5t136.5 -195.5q63 124 174.5 197t247.5 73q143 0 253 -72.5t168 -196
t58 -278.5q0 -25 -2 -41h-866q13 -188 131.5 -299.5t278.5 -111.5q206 0 358 163l70 -61q-88 -95 -189.5 -146t-242.5 -51q-129 0 -241 61.5t-181 168.5q-201 -230 -469 -230zM504 70q243 0 418 219q-42 106 -45 223q-198 45 -332 45q-159 0 -246.5 -67t-87.5 -181
q0 -110 84 -174.5t209 -64.5zM983 571h760q-5 81 -31 152.5t-71 129t-115.5 91t-157.5 33.5q-154 0 -262.5 -116t-122.5 -290z" />
    <glyph glyph-name="ccedilla" unicode="&#xe7;" horiz-adv-x="1169" 
d="M539 -303l-113 53l156 230q-199 26 -331 181t-132 361q0 145 70 270.5t193 201t269 75.5q135 0 233.5 -51.5t184.5 -140.5l-72 -74q-80 82 -160.5 127t-187.5 45q-178 0 -300 -131t-122 -322q0 -189 125 -320.5t305 -131.5q195 0 351 174l69 -62q-84 -94 -180 -147.5
t-221 -59.5z" />
    <glyph glyph-name="egrave" unicode="&#xe8;" horiz-adv-x="1196" 
d="M631 -25q-102 0 -195.5 40t-163.5 110.5t-111.5 174t-41.5 224.5q0 112 38 212.5t103 173.5t157.5 116t196.5 43q143 0 253.5 -72.5t168.5 -196.5t58 -278q0 -25 -2 -41h-867q13 -188 131.5 -299.5t278.5 -111.5q206 0 358 163l70 -61q-88 -95 -189.5 -146t-242.5 -51z
M225 571h760q-5 81 -31 152.5t-71 129t-115.5 91t-157.5 33.5q-154 0 -262.5 -116t-122.5 -290zM586 1219l-219 211l125 61l180 -272h-86z" />
    <glyph glyph-name="eacute" unicode="&#xe9;" horiz-adv-x="1196" 
d="M631 -25q-102 0 -195.5 40t-163.5 110.5t-111.5 174t-41.5 224.5q0 112 38 212.5t103 173.5t157.5 116t196.5 43q143 0 253.5 -72.5t168.5 -196.5t58 -278q0 -25 -2 -41h-867q13 -188 131.5 -299.5t278.5 -111.5q206 0 358 163l70 -61q-88 -95 -189.5 -146t-242.5 -51z
M225 571h760q-5 81 -31 152.5t-71 129t-115.5 91t-157.5 33.5q-154 0 -262.5 -116t-122.5 -290zM526 1219l181 272l124 -61l-219 -211h-86z" />
    <glyph glyph-name="ecircumflex" unicode="&#xea;" horiz-adv-x="1196" 
d="M631 -25q-102 0 -195.5 40t-163.5 110.5t-111.5 174t-41.5 224.5q0 112 38 212.5t103 173.5t157.5 116t196.5 43q143 0 253.5 -72.5t168.5 -196.5t58 -278q0 -25 -2 -41h-867q13 -188 131.5 -299.5t278.5 -111.5q206 0 358 163l70 -61q-88 -95 -189.5 -146t-242.5 -51z
M225 571h760q-5 81 -31 152.5t-71 129t-115.5 91t-157.5 33.5q-154 0 -262.5 -116t-122.5 -290zM362 1219l205 249h82l205 -249h-96l-152 139l-151 -139h-93z" />
    <glyph glyph-name="edieresis" unicode="&#xeb;" horiz-adv-x="1196" 
d="M631 -25q-102 0 -195.5 40t-163.5 110.5t-111.5 174t-41.5 224.5q0 112 38 212.5t103 173.5t157.5 116t196.5 43q143 0 253.5 -72.5t168.5 -196.5t58 -278q0 -25 -2 -41h-867q13 -188 131.5 -299.5t278.5 -111.5q206 0 358 163l70 -61q-88 -95 -189.5 -146t-242.5 -51z
M225 571h760q-5 81 -31 152.5t-71 129t-115.5 91t-157.5 33.5q-154 0 -262.5 -116t-122.5 -290zM371 1219v163h141v-163h-141zM705 1219v163h141v-163h-141z" />
    <glyph glyph-name="igrave" unicode="&#xec;" horiz-adv-x="509" 
d="M205 0v1044h100v-1044h-100zM209 1219l-219 211l125 61l180 -272h-86z" />
    <glyph glyph-name="iacute" unicode="&#xed;" horiz-adv-x="509" 
d="M205 0v1044h100v-1044h-100zM215 1219l180 272l125 -61l-219 -211h-86z" />
    <glyph glyph-name="icircumflex" unicode="&#xee;" horiz-adv-x="509" 
d="M205 0v1044h100v-1044h-100zM8 1219l205 249h82l205 -249h-97l-151 139l-152 -139h-92z" />
    <glyph glyph-name="idieresis" unicode="&#xef;" horiz-adv-x="509" 
d="M205 0v1044h100v-1044h-100zM16 1219v163h142v-163h-142zM350 1219v163h142v-163h-142z" />
    <glyph glyph-name="eth" unicode="&#xf0;" horiz-adv-x="1286" 
d="M633 -25q-108 0 -204.5 42.5t-164 114t-106.5 168t-39 202.5q0 108 40.5 201t108 156.5t157 99.5t185.5 36q114 0 199.5 -34t163.5 -95l-301 426l-273 -139l-59 74l281 137l-93 131h129l56 -84l200 102l58 -73l-209 -103l223 -329q87 -130 132.5 -246.5t45.5 -255.5
q0 -105 -38 -201.5t-105.5 -169.5t-168 -116.5t-218.5 -43.5zM643 70q119 0 214.5 60t146.5 157.5t51 212.5q0 167 -125 286t-307 119q-179 0 -287.5 -117t-108.5 -296q0 -80 31.5 -156.5t85.5 -135t132.5 -94.5t166.5 -36z" />
    <glyph glyph-name="ntilde" unicode="&#xf1;" horiz-adv-x="1255" 
d="M190 0v1044h101v-194q125 219 377 219q194 0 305.5 -119t111.5 -311v-639h-100v621q0 163 -88 259.5t-244 96.5q-155 0 -258.5 -105.5t-103.5 -267.5v-604h-101zM403 1200l-69 19q28 107 68 148.5t104 41.5q40 0 134 -42t128 -42q36 0 57 21.5t45 80.5l70 -18
q-28 -107 -68 -148.5t-104 -41.5q-40 0 -134 42t-128 42q-36 0 -57.5 -22t-45.5 -81z" />
    <glyph glyph-name="ograve" unicode="&#xf2;" horiz-adv-x="1310" 
d="M653 -25q-113 0 -213 44t-170 118t-110.5 174.5t-40.5 210.5q0 109 41 209t111 174.5t171 119t215 44.5q151 0 274.5 -74.5t192 -200t68.5 -272.5q0 -146 -69 -271t-193.5 -200.5t-276.5 -75.5zM657 70q114 0 212 60.5t156 164.5t58 227q0 188 -126 320.5t-304 132.5
q-116 0 -214 -60.5t-155 -165t-57 -227.5q0 -189 124.5 -320.5t305.5 -131.5zM610 1219l-219 211l125 61l180 -272h-86z" />
    <glyph glyph-name="oacute" unicode="&#xf3;" horiz-adv-x="1310" 
d="M653 -25q-113 0 -213 44t-170 118t-110.5 174.5t-40.5 210.5q0 109 41 209t111 174.5t171 119t215 44.5q151 0 274.5 -74.5t192 -200t68.5 -272.5q0 -146 -69 -271t-193.5 -200.5t-276.5 -75.5zM657 70q114 0 212 60.5t156 164.5t58 227q0 188 -126 320.5t-304 132.5
q-116 0 -214 -60.5t-155 -165t-57 -227.5q0 -189 124.5 -320.5t305.5 -131.5zM614 1219l181 272l125 -61l-220 -211h-86z" />
    <glyph glyph-name="ocircumflex" unicode="&#xf4;" horiz-adv-x="1310" 
d="M653 -25q-113 0 -213 44t-170 118t-110.5 174.5t-40.5 210.5q0 109 41 209t111 174.5t171 119t215 44.5q151 0 274.5 -74.5t192 -200t68.5 -272.5q0 -146 -69 -271t-193.5 -200.5t-276.5 -75.5zM657 70q114 0 212 60.5t156 164.5t58 227q0 188 -126 320.5t-304 132.5
q-116 0 -214 -60.5t-155 -165t-57 -227.5q0 -189 124.5 -320.5t305.5 -131.5zM410 1219l204 249h82l205 -249h-96l-152 139l-151 -139h-92z" />
    <glyph glyph-name="otilde" unicode="&#xf5;" horiz-adv-x="1310" 
d="M653 -25q-113 0 -213 44t-170 118t-110.5 174.5t-40.5 210.5q0 109 41 209t111 174.5t171 119t215 44.5q151 0 274.5 -74.5t192 -200t68.5 -272.5q0 -146 -69 -271t-193.5 -200.5t-276.5 -75.5zM657 70q114 0 212 60.5t156 164.5t58 227q0 188 -126 320.5t-304 132.5
q-116 0 -214 -60.5t-155 -165t-57 -227.5q0 -189 124.5 -320.5t305.5 -131.5zM422 1200l-70 19q28 107 68 148.5t104 41.5q40 0 134 -42t128 -42q36 0 58 21.5t45 80.5l69 -18q-28 -107 -68 -148.5t-104 -41.5q-40 0 -134 42t-128 42q-36 0 -57 -22t-45 -81z" />
    <glyph glyph-name="odieresis" unicode="&#xf6;" horiz-adv-x="1310" 
d="M653 -25q-113 0 -213 44t-170 118t-110.5 174.5t-40.5 210.5q0 109 41 209t111 174.5t171 119t215 44.5q151 0 274.5 -74.5t192 -200t68.5 -272.5q0 -146 -69 -271t-193.5 -200.5t-276.5 -75.5zM657 70q114 0 212 60.5t156 164.5t58 227q0 188 -126 320.5t-304 132.5
q-116 0 -214 -60.5t-155 -165t-57 -227.5q0 -189 124.5 -320.5t305.5 -131.5zM418 1219v163h141v-163h-141zM752 1219v163h141v-163h-141z" />
    <glyph glyph-name="divide" unicode="&#xf7;" horiz-adv-x="1310" 
d="M190 672v104h930v-104h-930zM588 264v174h135v-174h-135zM588 1010v174h135v-174h-135z" />
    <glyph glyph-name="oslash" unicode="&#xf8;" horiz-adv-x="1310" 
d="M653 -25q-196 0 -342 123l-106 -108h-117l162 168q-131 153 -131 364q0 109 41 209t111 174.5t171 119t215 44.5q198 0 342 -125l107 115h117l-164 -172q133 -152 133 -365q0 -146 -69 -271t-193.5 -200.5t-276.5 -75.5zM657 70q184 0 305 131t121 321q0 162 -96 289
l-610 -635q118 -106 280 -106zM324 233l610 633q-122 109 -281 109q-184 0 -305 -131.5t-121 -321.5q0 -162 97 -289z" />
    <glyph glyph-name="ugrave" unicode="&#xf9;" horiz-adv-x="1255" 
d="M588 -25q-194 0 -306 119.5t-112 311.5v638h100v-620q0 -163 88 -259.5t244 -96.5q155 0 259 105t104 267v604h100v-1044h-100v195q-125 -220 -377 -220zM592 1208l-219 211l125 62l180 -273h-86z" />
    <glyph glyph-name="uacute" unicode="&#xfa;" horiz-adv-x="1255" 
d="M588 -25q-194 0 -306 119.5t-112 311.5v638h100v-620q0 -163 88 -259.5t244 -96.5q155 0 259 105t104 267v604h100v-1044h-100v195q-125 -220 -377 -220zM567 1208l181 273l124 -62l-219 -211h-86z" />
    <glyph glyph-name="ucircumflex" unicode="&#xfb;" horiz-adv-x="1255" 
d="M588 -25q-194 0 -306 119.5t-112 311.5v638h100v-620q0 -163 88 -259.5t244 -96.5q155 0 259 105t104 267v604h100v-1044h-100v195q-125 -220 -377 -220zM385 1219l205 249h82l205 -249h-97l-151 139l-152 -139h-92z" />
    <glyph glyph-name="udieresis" unicode="&#xfc;" horiz-adv-x="1255" 
d="M588 -25q-194 0 -306 119.5t-112 311.5v638h100v-620q0 -163 88 -259.5t244 -96.5q155 0 259 105t104 267v604h100v-1044h-100v195q-125 -220 -377 -220zM393 1219v163h142v-163h-142zM727 1219v163h141v-163h-141z" />
    <glyph glyph-name="yacute" unicode="&#xfd;" horiz-adv-x="1204" 
d="M317 -334q-104 0 -206 45l34 88q79 -39 179 -39q83 0 141.5 55.5t116.5 190.5l-502 1038h117l434 -933l377 933h110l-452 -1081q-67 -160 -150 -228.5t-199 -68.5zM575 1208l181 273l125 -62l-219 -211h-87z" />
    <glyph glyph-name="thorn" unicode="&#xfe;" horiz-adv-x="1351" 
d="M190 -328v1823h101v-684q169 258 430 258q95 0 185.5 -38t162.5 -106t116 -173t44 -230q0 -123 -44 -228t-116 -173.5t-162.5 -107t-185.5 -38.5q-266 0 -430 250v-553h-101zM711 72q176 0 292.5 121t116.5 329q0 100 -33 185.5t-89 143t-130.5 90t-156.5 32.5
q-81 0 -158 -33.5t-136.5 -91.5t-95.5 -144t-36 -184q0 -129 61.5 -233.5t158.5 -159.5t206 -55z" />
    <glyph glyph-name="ydieresis" unicode="&#xff;" horiz-adv-x="1204" 
d="M317 -334q-104 0 -206 45l34 88q79 -39 179 -39q83 0 141.5 55.5t116.5 190.5l-502 1038h117l434 -933l377 933h110l-452 -1081q-67 -160 -150 -228.5t-199 -68.5zM365 1219v163h141v-163h-141zM698 1219v163h142v-163h-142z" />
    <glyph glyph-name="dotlessi" unicode="&#x131;" horiz-adv-x="509" 
d="M205 0v1044h100v-1044h-100z" />
    <glyph glyph-name="Lslash" unicode="&#x141;" horiz-adv-x="1329" 
d="M274 0v647l-153 -47v98l153 47v689h105v-656l461 142v-99l-461 -141v-582h844v-98h-949z" />
    <glyph glyph-name="lslash" unicode="&#x142;" horiz-adv-x="632" 
d="M266 0v688l-155 -49v102l155 47v707h101v-676l155 49v-102l-155 -49v-717h-101z" />
    <glyph glyph-name="OE" unicode="&#x152;" horiz-adv-x="2359" 
d="M911 0q-221 0 -395.5 94t-270 257t-95.5 366q0 150 56 282t155 228t241.5 151.5t308.5 55.5h1309v-99h-883v-563h791v-98h-791v-576h893v-98h-1319zM911 98h320v1237h-320q-146 0 -269.5 -48t-206.5 -131t-129 -196.5t-46 -242.5q0 -127 46 -240t129 -197t206.5 -133
t269.5 -49z" />
    <glyph glyph-name="oe" unicode="&#x153;" horiz-adv-x="2160" 
d="M651 -25q-149 0 -272 74.5t-191.5 200t-68.5 272.5q0 145 69 270.5t193 201t274 75.5q162 0 290 -88t190 -231q58 145 176.5 232t269.5 87q214 0 345.5 -155.5t131.5 -391.5q0 -25 -2 -41h-866q13 -188 131 -299.5t278 -111.5q207 0 359 163l70 -61q-88 -95 -189.5 -146
t-239.5 -51q-153 0 -278.5 86.5t-185.5 235.5q-62 -144 -191.5 -233t-292.5 -89zM657 70q184 0 305 131t121 321t-124.5 321.5t-305.5 131.5q-184 0 -305 -131.5t-121 -321.5q0 -189 124.5 -320.5t305.5 -131.5zM1190 571h760q-5 81 -31 152.5t-71 129t-115.5 91
t-157.5 33.5q-154 0 -262.5 -116t-122.5 -290z" />
    <glyph glyph-name="Scaron" unicode="&#x160;" horiz-adv-x="1310" 
d="M698 -20q-169 0 -307.5 56t-269.5 173l69 80q122 -112 241 -162.5t274 -50.5q160 0 261 81t101 208q0 80 -32.5 133t-122 96t-250.5 76q-259 53 -371.5 147.5t-112.5 259.5q0 161 131 269t330 108q152 0 265 -41.5t226 -132.5l-67 -84q-99 86 -202.5 124t-225.5 38
q-156 0 -253 -78.5t-97 -196.5q0 -81 32.5 -134.5t125 -99t259.5 -79.5q249 -51 360.5 -145t111.5 -254q0 -172 -134 -281.5t-342 -109.5zM629 1567l-205 250h96l152 -140l151 140h92l-204 -250h-82z" />
    <glyph glyph-name="scaron" unicode="&#x161;" horiz-adv-x="1017" 
d="M528 -20q-113 0 -228.5 41.5t-199.5 109.5l60 80q179 -137 375 -137q108 0 179.5 55t71.5 147q0 36 -16 65.5t-38.5 49.5t-62.5 38.5t-73.5 29.5t-85.5 26q-40 12 -57.5 17t-55.5 17.5t-56 21t-49.5 23.5t-47 28.5t-36.5 34t-31 42t-17.5 49t-7.5 58.5q0 126 96 207.5
t248 81.5q93 0 192 -31t178 -84l-53 -84q-160 105 -321 105q-106 0 -172 -52.5t-66 -134.5q0 -28 10 -52t33 -43t45 -33t62 -28.5t66.5 -23t74.5 -22.5q50 -14 85 -25.5t78.5 -30t72.5 -40.5t55.5 -50.5t39.5 -66.5t13 -84q0 -137 -103.5 -221t-257.5 -84zM473 1219
l-205 249h97l151 -139l152 139h92l-205 -249h-82z" />
    <glyph glyph-name="Ydieresis" unicode="&#x178;" horiz-adv-x="1466" 
d="M680 0v567l-614 867h133l536 -770l539 770h127l-615 -865v-569h-106zM496 1556v164h141v-164h-141zM829 1556v164h142v-164h-142z" />
    <glyph glyph-name="Zcaron" unicode="&#x17d;" horiz-adv-x="1409" 
d="M139 0v59l981 1278h-946v97h1098v-60l-981 -1278h981v-96h-1133zM674 1567l-205 250h96l152 -140l151 140h93l-205 -250h-82z" />
    <glyph glyph-name="zcaron" unicode="&#x17e;" horiz-adv-x="1134" 
d="M119 0v57l753 897h-725v90h875v-57l-754 -897h754v-90h-903zM545 1219l-205 249h96l152 -139l151 139h92l-204 -249h-82z" />
    <glyph glyph-name="florin" unicode="&#x192;" horiz-adv-x="1036" 
d="M184 -10q-46 0 -100 8v90q41 -8 94 -8q139 0 168 168l100 538h-223v93h240l53 278q29 151 99 219t194 68q80 0 154 -21v-90q-86 21 -144 21q-84 0 -129 -47t-65 -156l-52 -272h318v-93h-334l-102 -544q-25 -128 -90.5 -190t-180.5 -62z" />
    <glyph glyph-name="circumflex" unicode="&#x2c6;" 
d="M266 1219l205 249h82l205 -249h-96l-152 139l-152 -139h-92z" />
    <glyph glyph-name="caron" unicode="&#x2c7;" 
d="M471 1219l-205 249h96l152 -139l152 139h92l-205 -249h-82z" />
    <glyph glyph-name="breve" unicode="&#x2d8;" 
d="M512 1214q-116 0 -190.5 68t-81.5 186h79q40 -149 193 -149t193 149h79q-7 -118 -81.5 -186t-190.5 -68z" />
    <glyph glyph-name="dotaccent" unicode="&#x2d9;" 
d="M438 1219v165h148v-165h-148z" />
    <glyph glyph-name="ring" unicode="&#x2da;" 
d="M512 1214q-81 0 -141 57t-60 138q0 77 60.5 133.5t140.5 56.5q81 0 141 -56.5t60 -137.5q0 -77 -60.5 -134t-140.5 -57zM512 1280q52 0 89.5 38t37.5 91q0 51 -37.5 88t-89.5 37q-53 0 -90 -37.5t-37 -91.5q0 -51 38 -88t89 -37z" />
    <glyph glyph-name="ogonek" unicode="&#x2db;" 
d="M729 -336h-27q-155 0 -237 60.5t-82 158.5q0 66 29 137h88q-13 -60 -13 -114q0 -166 242 -178v-64z" />
    <glyph glyph-name="tilde" unicode="&#x2dc;" 
d="M279 1200l-70 19q28 107 68 148.5t104 41.5q40 0 134 -42t128 -42q36 0 57 21.5t45 80.5l70 -18q-28 -107 -68 -148.5t-104 -41.5q-40 0 -134 42t-128 42q-36 0 -57 -22t-45 -81z" />
    <glyph glyph-name="hungarumlaut" unicode="&#x2dd;" 
d="M209 1219l182 272l113 -59l-207 -213h-88zM520 1219l182 272l113 -59l-207 -213h-88z" />
    <glyph glyph-name="Omega" unicode="&#x3a9;" horiz-adv-x="1622" 
d="M1448 0h-492v360q185 32 283 159.5t98 320.5q0 146 -71 263t-191 181t-266 64q-144 0 -264.5 -64.5t-191 -181t-70.5 -260.5q0 -188 102 -324.5t281 -157.5v-360h-492v96h404v185q-186 50 -295 206t-109 353q0 130 51.5 244t138 193.5t203.5 125t246 45.5
q170 0 314.5 -77t231.5 -216.5t87 -310.5q0 -200 -107 -355t-295 -208v-185h404v-96z" />
    <glyph glyph-name="Omega" unicode="&#x2126;" horiz-adv-x="1622" 
d="M1448 0h-492v360q185 32 283 159.5t98 320.5q0 146 -71 263t-191 181t-266 64q-144 0 -264.5 -64.5t-191 -181t-70.5 -260.5q0 -188 102 -324.5t281 -157.5v-360h-492v96h404v185q-186 50 -295 206t-109 353q0 130 51.5 244t138 193.5t203.5 125t246 45.5
q170 0 314.5 -77t231.5 -216.5t87 -310.5q0 -200 -107 -355t-295 -208v-185h404v-96z" />
    <glyph glyph-name="pi" unicode="&#x3c0;" 
d="M0 0v1434h1024v-1434h-1024zM166 100h694l-348 523zM100 197l351 520l-351 520v-1040zM922 197v1040l-351 -520zM512 809l348 522h-694z" />
    <glyph glyph-name="afii10023" unicode="&#x401;" horiz-adv-x="1372" 
d="M213 0v1434h1020v-99h-914v-563h822v-98h-822v-576h924v-98h-1030zM489 1567v164h142v-164h-142zM823 1567v164h142v-164h-142z" />
    <glyph glyph-name="afii10051" unicode="&#x402;" horiz-adv-x="1753" 
d="M1155 -25q-105 0 -207 45l35 89q75 -37 178 -37q49 0 97 12t96 41.5t84.5 73t59 112.5t22.5 154q0 170 -101 276.5t-262 106.5q-151 0 -267.5 -48t-234.5 -153v-647h-106v1335h-438v99h1106v-99h-562v-573q115 91 233.5 136.5t262.5 45.5q212 0 343.5 -127t131.5 -350
q0 -227 -131.5 -359.5t-339.5 -132.5z" />
    <glyph glyph-name="afii10052" unicode="&#x403;" horiz-adv-x="1208" 
d="M213 0v1434h895v-99h-789v-1335h-106zM553 1567l180 272l125 -61l-219 -211h-86z" />
    <glyph glyph-name="afii10053" unicode="&#x404;" horiz-adv-x="1511" 
d="M862 -25q-151 0 -284 57.5t-226.5 156.5t-147.5 235t-54 289q0 152 54 289t148 237.5t228 159.5t286 59q177 0 300 -58.5t249 -174.5l-67 -74q-104 101 -219 156t-265 55q-161 0 -295 -77t-215 -212t-92 -301h772v-98h-774q11 -170 93 -307.5t217 -216t296 -78.5
q149 0 264 55t230 168l72 -74q-118 -121 -253.5 -183.5t-316.5 -62.5z" />
    <glyph glyph-name="afii10054" unicode="&#x405;" horiz-adv-x="1310" 
d="M698 -20q-169 0 -307.5 56t-269.5 173l69 80q122 -112 241 -162.5t274 -50.5q160 0 261 81t101 208q0 80 -32.5 133t-122 96t-250.5 76q-259 53 -371.5 147.5t-112.5 259.5q0 161 131 269t330 108q152 0 265 -41.5t226 -132.5l-67 -84q-99 86 -202.5 124t-225.5 38
q-156 0 -253 -78.5t-97 -196.5q0 -81 32.5 -134.5t125 -99t259.5 -79.5q249 -51 360.5 -145t111.5 -254q0 -172 -134 -281.5t-342 -109.5z" />
    <glyph glyph-name="afii10055" unicode="&#x406;" horiz-adv-x="561" 
d="M227 0v1434h107v-1434h-107z" />
    <glyph glyph-name="afii10056" unicode="&#x407;" horiz-adv-x="561" 
d="M227 0v1434h107v-1434h-107zM43 1567v164h141v-164h-141zM377 1567v164h141v-164h-141z" />
    <glyph glyph-name="afii10057" unicode="&#x408;" horiz-adv-x="1124" 
d="M510 -20q-285 0 -434 268l88 55q69 -117 149.5 -172t202.5 -55q137 0 224 100.5t87 282.5v975h107v-967q0 -242 -131 -373q-114 -114 -293 -114z" />
    <glyph glyph-name="afii10058" unicode="&#x409;" horiz-adv-x="2412" 
d="M172 -14q-38 0 -89.5 10.5t-82.5 23.5l33 89q52 -25 137 -25q29 0 53 6t57.5 31.5t60.5 68.5t55 124t46.5 191t30.5 278t12 376v275h879v-576h424q84 0 159 -14t142 -46t115.5 -79t77 -117t28.5 -156q0 -205 -140.5 -325.5t-371.5 -120.5h-541v1335h-669v-180
q0 -217 -12.5 -391.5t-33.5 -295t-53 -209t-66 -140.5t-78.5 -82.5t-84 -40.5t-88.5 -10zM1364 98h416q198 0 309 87t111 257q0 157 -114.5 237.5t-318.5 80.5h-403v-662z" />
    <glyph glyph-name="afii10059" unicode="&#x40a;" horiz-adv-x="2392" 
d="M213 0v1434h106v-617h918v617h106v-617h445q83 0 156.5 -14t137.5 -45t110 -76t72 -110.5t26 -145.5q0 -193 -132.5 -309.5t-359.5 -116.5h-561v719h-918v-719h-106zM1343 98h437q194 0 296.5 83t102.5 241q0 145 -106 221t-306 76h-424v-621z" />
    <glyph glyph-name="afii10060" unicode="&#x40b;" horiz-adv-x="1796" 
d="M549 0v1335h-438v99h1106v-99h-562v-604q115 91 233.5 136.5t262.5 45.5q214 0 344.5 -106.5t130.5 -304.5v-502h-106v512q0 137 -100.5 221t-262.5 84q-151 0 -267.5 -48t-234.5 -153v-616h-106z" />
    <glyph glyph-name="afii10061" unicode="&#x40c;" horiz-adv-x="1464" 
d="M213 0v1434h106v-942l914 942h145l-626 -633l653 -801h-139l-590 725l-357 -360v-365h-106zM621 1567l180 272l125 -61l-219 -211h-86z" />
    <glyph glyph-name="afii10062" unicode="&#x40e;" horiz-adv-x="1488" 
d="M414 -25q-121 0 -230 50l41 92q83 -41 189 -41q198 0 323 250l-647 1108h125l576 -998l491 998h117l-570 -1143q-82 -163 -189.5 -239.5t-225.5 -76.5zM791 1563q-106 0 -182 66.5t-95 168.5l84 19q41 -150 193 -150q151 0 192 150l84 -19q-19 -102 -94.5 -168.5
t-181.5 -66.5z" />
    <glyph glyph-name="afii10145" unicode="&#x40f;" horiz-adv-x="1536" 
d="M723 -328v328h-510v1434h106v-1336h898v1336h106v-1434h-489v-328h-111z" />
    <glyph glyph-name="afii10017" unicode="&#x410;" horiz-adv-x="1617" 
d="M90 0l668 1444h102l668 -1444h-117l-182 401h-846l-182 -401h-111zM428 498h756l-377 829z" />
    <glyph glyph-name="afii10018" unicode="&#x411;" horiz-adv-x="1449" 
d="M213 0v1434h999v-99h-893v-508h484q115 0 207.5 -23t163 -70t109 -125.5t38.5 -182.5q0 -205 -132 -315.5t-370 -110.5h-606zM319 98h480q411 0 411 328q0 150 -109.5 226.5t-312.5 76.5h-469v-631z" />
    <glyph glyph-name="afii10019" unicode="&#x412;" horiz-adv-x="1478" 
d="M213 0v1434h592q211 0 338 -97t127 -260q0 -70 -21 -128t-58 -98.5t-77 -67.5t-88 -46q324 -85 324 -346q0 -179 -140.5 -285t-373.5 -106h-623zM319 98h521q185 0 293 79.5t108 217.5q0 133 -112.5 206t-323.5 73h-486v-576zM319 772h474q166 0 267 78t101 221
q0 120 -94.5 192t-263.5 72h-484v-563z" />
    <glyph glyph-name="afii10020" unicode="&#x413;" horiz-adv-x="1208" 
d="M213 0v1434h895v-99h-789v-1335h-106z" />
    <glyph glyph-name="afii10021" unicode="&#x414;" horiz-adv-x="1538" 
d="M20 -328v426h154q110 154 169.5 425t59.5 607v304h879v-1336h195l-21 -426h-90v328h-1235l-20 -328h-91zM297 98h879v1237h-668v-282q0 -292 -56.5 -551.5t-154.5 -403.5z" />
    <glyph glyph-name="afii10022" unicode="&#x415;" horiz-adv-x="1372" 
d="M213 0v1434h1020v-99h-914v-563h822v-98h-822v-576h924v-98h-1030z" />
    <glyph glyph-name="afii10024" unicode="&#x416;" horiz-adv-x="2195" 
d="M47 0l604 817l-563 617h135l821 -914v914h107v-914l821 914h135l-563 -617l604 -817h-133l-545 737l-319 -350v-387h-107v387l-321 350l-543 -737h-133z" />
    <glyph glyph-name="afii10025" unicode="&#x417;" horiz-adv-x="1280" 
d="M666 -25q-170 0 -311.5 56.5t-272.5 173.5l70 80q121 -111 242.5 -162t275.5 -51q159 0 264.5 85t105.5 222q0 139 -112 218t-312 79h-155v94h157q168 0 275.5 81t107.5 222q0 125 -100.5 206t-255.5 81q-236 0 -434 -162l-64 82q112 90 230.5 133t271.5 43
q205 0 334 -108t129 -275q0 -71 -23 -129.5t-63.5 -98.5t-86 -67t-99.5 -45q142 -41 226.5 -130t84.5 -226q0 -169 -136.5 -285.5t-348.5 -116.5z" />
    <glyph glyph-name="afii10026" unicode="&#x418;" horiz-adv-x="1568" 
d="M213 0v1434h106v-1280l932 1280h105v-1434h-107v1280l-930 -1280h-106z" />
    <glyph glyph-name="afii10027" unicode="&#x419;" horiz-adv-x="1568" 
d="M213 0v1434h106v-1280l932 1280h105v-1434h-107v1280l-930 -1280h-106zM786 1552q-106 0 -181.5 67t-94.5 169l84 18q40 -149 192 -149q153 0 193 149l84 -18q-19 -102 -95 -169t-182 -67z" />
    <glyph glyph-name="afii10028" unicode="&#x41a;" horiz-adv-x="1464" 
d="M213 0v1434h106v-942l914 942h145l-626 -633l653 -801h-139l-590 725l-357 -360v-365h-106z" />
    <glyph glyph-name="afii10029" unicode="&#x41b;" horiz-adv-x="1576" 
d="M172 -14q-38 0 -89.5 10.5t-82.5 23.5l33 89q52 -25 137 -25q29 0 53 6t57.5 31.5t60.5 68.5t55 124t46.5 191t30.5 278t12 376v275h879v-1434h-107v1335h-669v-180q0 -217 -12.5 -391.5t-33.5 -295t-53 -209t-66 -140.5t-78.5 -82.5t-84 -40.5t-88.5 -10z" />
    <glyph glyph-name="afii10030" unicode="&#x41c;" horiz-adv-x="1777" 
d="M213 0v1434h100l576 -848l575 848h101v-1434h-107v1245l-567 -825h-8l-568 825v-1245h-102z" />
    <glyph glyph-name="afii10031" unicode="&#x41d;" horiz-adv-x="1556" 
d="M213 0v1434h106v-664h918v664h106v-1434h-106v672h-918v-672h-106z" />
    <glyph glyph-name="afii10032" unicode="&#x41e;" horiz-adv-x="1740" 
d="M868 -25q-159 0 -295 60.5t-227.5 162.5t-143.5 236.5t-52 282.5q0 146 52.5 280.5t145 236.5t229.5 163t295 61q159 0 295 -60.5t228 -162t144 -236t52 -282.5q0 -146 -52.5 -280.5t-145.5 -237t-230 -163.5t-295 -61zM872 72q173 0 313.5 86.5t218 233.5t77.5 325
q0 131 -46.5 250t-127 205.5t-195 138t-244.5 51.5q-173 0 -313 -86.5t-217.5 -233.5t-77.5 -325q0 -176 78.5 -323.5t219.5 -234.5t314 -87z" />
    <glyph glyph-name="afii10033" unicode="&#x41f;" horiz-adv-x="1536" 
d="M213 0v1434h1110v-1434h-106v1335h-898v-1335h-106z" />
    <glyph glyph-name="afii10034" unicode="&#x420;" horiz-adv-x="1368" 
d="M213 0v1434h520q240 0 386.5 -118t146.5 -325q0 -110 -45 -198t-122.5 -143.5t-177.5 -85t-214 -29.5h-388v-535h-106zM319 633h394q201 0 323.5 97t122.5 259q0 166 -118 256t-316 90h-406v-702z" />
    <glyph glyph-name="afii10035" unicode="&#x421;" horiz-adv-x="1511" 
d="M862 -25q-201 0 -365 98.5t-255.5 268t-91.5 375.5q0 201 91.5 370.5t257 270t367.5 100.5q93 0 172 -17t146 -51t119.5 -72.5t113.5 -94.5l-69 -72q-104 101 -219 156t-265 55q-127 0 -239 -50t-192 -135.5t-126.5 -205t-46.5 -254.5q0 -134 47 -253.5t127.5 -205.5
t193 -136t238.5 -50q149 0 264 55t230 168l72 -70q-125 -123 -258 -186.5t-312 -63.5z" />
    <glyph glyph-name="afii10036" unicode="&#x422;" horiz-adv-x="1327" 
d="M610 0v1335h-499v99h1106v-99h-500v-1335h-107z" />
    <glyph glyph-name="afii10037" unicode="&#x423;" horiz-adv-x="1488" 
d="M414 -25q-121 0 -230 50l41 92q83 -41 189 -41q198 0 323 250l-647 1108h125l576 -998l491 998h117l-570 -1143q-82 -163 -189.5 -239.5t-225.5 -76.5z" />
    <glyph glyph-name="afii10038" unicode="&#x424;" horiz-adv-x="1765" 
d="M829 -53v159h-67q-154 0 -280 48.5t-208.5 132t-127 194.5t-44.5 238t44.5 238t127 195t209 132.5t279.5 48.5h67v146h107v-146h68q153 0 279 -48.5t208.5 -132.5t127 -195t44.5 -238t-44.5 -238t-127 -194.5t-208 -132t-279.5 -48.5h-68v-159h-107zM762 203h67v1034h-67
q-259 -4 -404 -146t-145 -372t145 -371t404 -145zM936 203h68q259 4 403.5 145t144.5 371t-144.5 372t-403.5 146h-68v-1034z" />
    <glyph glyph-name="afii10039" unicode="&#x425;" horiz-adv-x="1478" 
d="M104 0l572 731l-551 703h127l489 -631l488 631h125l-549 -701l569 -733h-127l-510 662l-508 -662h-125z" />
    <glyph glyph-name="afii10040" unicode="&#x426;" horiz-adv-x="1579" 
d="M1407 -328v328h-1194v1434h106v-1336h898v1336h106v-1336h195l-21 -426h-90z" />
    <glyph glyph-name="afii10041" unicode="&#x427;" horiz-adv-x="1413" 
d="M1094 0v639q-99 -54 -234 -102t-242 -48q-211 0 -332.5 106t-121.5 306v533h106v-543q0 -139 91 -222t251 -83q112 0 240.5 44t241.5 109v695h106v-1434h-106z" />
    <glyph glyph-name="afii10042" unicode="&#x428;" horiz-adv-x="2252" 
d="M213 0v1434h106v-1336h754v1336h107v-1336h753v1336h107v-1434h-1827z" />
    <glyph glyph-name="afii10043" unicode="&#x429;" horiz-adv-x="2295" 
d="M2124 -328v328h-1911v1434h106v-1336h754v1336h107v-1336h753v1336h107v-1336h194l-20 -426h-90z" />
    <glyph glyph-name="afii10044" unicode="&#x42a;" horiz-adv-x="1646" 
d="M492 0v1335h-390v99h496v-576h424q84 0 159 -14t142 -46t115.5 -79t77 -117t28.5 -156q0 -205 -140.5 -325.5t-371.5 -120.5h-540zM598 98h416q198 0 309 87t111 257q0 157 -114.5 237.5t-318.5 80.5h-403v-662z" />
    <glyph glyph-name="afii10045" unicode="&#x42b;" horiz-adv-x="1781" 
d="M213 0v1434h106v-576h424q106 0 197 -23.5t165.5 -71t117.5 -129t43 -188.5q0 -205 -140.5 -325.5t-371.5 -120.5h-541zM319 98h416q198 0 309 87t111 257q0 157 -114 237.5t-318 80.5h-404v-662zM1462 0v1434h107v-1434h-107z" />
    <glyph glyph-name="afii10046" unicode="&#x42c;" horiz-adv-x="1368" 
d="M213 0v1434h106v-576h424q106 0 197 -23.5t165.5 -71t117.5 -129t43 -188.5q0 -205 -140.5 -325.5t-371.5 -120.5h-541zM319 98h416q198 0 309 87t111 257q0 157 -114 237.5t-318 80.5h-404v-662z" />
    <glyph glyph-name="afii10047" unicode="&#x42d;" horiz-adv-x="1511" 
d="M649 -25q-181 0 -316 62.5t-253 183.5l72 74q115 -113 229.5 -168t263.5 -55q162 0 296.5 78.5t216 216t91.5 307.5h-772v98h772q-19 254 -188.5 422t-413.5 168q-150 0 -264 -55t-219 -156l-68 74q126 116 249 174.5t300 58.5q203 0 368 -100.5t257 -271t92 -373.5
q0 -204 -92 -373t-256 -267t-365 -98z" />
    <glyph glyph-name="afii10048" unicode="&#x42e;" horiz-adv-x="2125" 
d="M1307 -25q-189 0 -339 92t-234 250t-93 355h-322v-672h-106v1434h106v-664h322q11 193 97 349t236 247.5t337 91.5q195 0 348 -98t235 -266t82 -375q0 -155 -49 -291.5t-135.5 -236.5t-212 -158t-272.5 -58zM1311 72q160 0 287.5 84t197.5 231t70 330q0 181 -71 328
t-199.5 232t-288.5 85t-287.5 -84t-197.5 -231t-70 -330q0 -181 71 -328t199.5 -232t288.5 -85z" />
    <glyph glyph-name="afii10049" unicode="&#x42f;" horiz-adv-x="1480" 
d="M98 0l457 592q-186 25 -294.5 135t-108.5 289q0 181 139.5 299.5t372.5 118.5h602v-1434h-107v573h-485l-441 -573h-135zM676 670h483v665h-489q-193 0 -302.5 -89t-109.5 -238q0 -153 117.5 -245.5t300.5 -92.5z" />
    <glyph glyph-name="afii10065" unicode="&#x430;" horiz-adv-x="1175" 
d="M508 -25q-110 0 -200 36t-147 113t-57 183q0 160 125.5 250t331.5 90q179 0 346 -45v45q0 156 -90.5 238t-253.5 82q-162 0 -327 -84l-37 88q195 90 370 90q215 0 330 -115q107 -107 107 -295v-651h-99v174q-62 -86 -162 -142.5t-237 -56.5zM514 70q163 0 279 90.5
t116 230.5v119q-180 47 -354 47q-163 0 -252.5 -67t-89.5 -181q0 -112 82 -175.5t219 -63.5z" />
    <glyph glyph-name="afii10066" unicode="&#x431;" horiz-adv-x="1314" 
d="M668 -25q-230 0 -377.5 158t-147.5 416q0 67 1 115t5 110t11.5 107t21.5 98t33 91.5t47 78.5t64 68.5t84 52.5t106 39l594 149l29 -90l-574 -151q-165 -44 -236.5 -137t-86.5 -277q148 246 452 246q135 0 251 -73t183.5 -196t67.5 -264q0 -145 -67.5 -268.5t-189.5 -198
t-271 -74.5zM672 70q179 0 297 128.5t118 313.5t-121 313.5t-298 128.5q-179 0 -297.5 -128.5t-118.5 -313.5t121.5 -313.5t298.5 -128.5z" />
    <glyph glyph-name="afii10067" unicode="&#x432;" horiz-adv-x="1187" 
d="M190 0v1044h478q153 0 245.5 -70.5t92.5 -189.5q0 -165 -177 -239q104 -27 170 -92t66 -168q0 -130 -103 -207.5t-272 -77.5h-500zM291 90h387q131 0 207 56t76 153q0 92 -79.5 143.5t-228.5 51.5h-362v-404zM291 578h362q112 0 181 52t69 148q0 80 -64 128t-180 48h-368
v-376z" />
    <glyph glyph-name="afii10068" unicode="&#x433;" horiz-adv-x="942" 
d="M190 0v1044h691v-90h-590v-954h-101z" />
    <glyph glyph-name="afii10069" unicode="&#x434;" horiz-adv-x="1249" 
d="M29 -295v385h137q153 253 153 733v221h701v-954h168l-21 -385h-82v295h-952l-20 -295h-84zM276 90h644v864h-504v-188q0 -205 -38.5 -387.5t-101.5 -288.5z" />
    <glyph glyph-name="afii10070" unicode="&#x435;" horiz-adv-x="1196" 
d="M631 -25q-102 0 -195.5 40t-163.5 110.5t-111.5 174t-41.5 224.5q0 112 38 212.5t103 173.5t157.5 116t196.5 43q143 0 253.5 -72.5t168.5 -196.5t58 -278q0 -25 -2 -41h-867q13 -188 131.5 -299.5t278.5 -111.5q206 0 358 163l70 -61q-88 -95 -189.5 -146t-242.5 -51z
M225 571h760q-5 81 -31 152.5t-71 129t-115.5 91t-157.5 33.5q-154 0 -262.5 -116t-122.5 -290z" />
    <glyph glyph-name="afii10072" unicode="&#x436;" horiz-adv-x="1710" 
d="M53 0l443 592l-416 452h127l598 -665v665h100v-665l598 665h127l-418 -452l445 -592h-123l-385 520l-244 -264v-256h-100v256l-244 266l-385 -522h-123z" />
    <glyph glyph-name="afii10073" unicode="&#x437;" 
d="M518 -20q-236 0 -426 155l62 82q169 -143 360 -143q111 0 198 62t87 153q0 93 -77.5 146.5t-213.5 53.5h-143v91h145q113 0 186.5 55t73.5 149q0 83 -72 134t-180 51q-84 0 -170.5 -26.5t-154.5 -80.5l-60 80q165 121 387 121q163 0 262 -77.5t99 -201.5
q0 -170 -168 -241q194 -68 194 -256q0 -127 -109.5 -217t-279.5 -90z" />
    <glyph glyph-name="afii10074" unicode="&#x438;" horiz-adv-x="1290" 
d="M190 0v1044h101v-911l708 911h101v-1044h-101v911l-708 -911h-101z" />
    <glyph glyph-name="afii10075" unicode="&#x439;" horiz-adv-x="1290" 
d="M190 0v1044h101v-911l708 911h101v-1044h-101v911l-708 -911h-101zM645 1214q-106 0 -181.5 67t-94.5 169l84 18q40 -149 192 -149q153 0 193 149l84 -18q-19 -102 -95 -169t-182 -67z" />
    <glyph glyph-name="afii10076" unicode="&#x43a;" horiz-adv-x="1138" 
d="M190 0v1044h101v-669l647 669h133l-457 -462l471 -582h-127l-413 510l-254 -256v-254h-101z" />
    <glyph glyph-name="afii10077" unicode="&#x43b;" horiz-adv-x="1249" 
d="M123 -16q-57 0 -115 16l19 92q49 -14 79 -14q34 0 57.5 5.5t50.5 26.5t45 59t35.5 105t28 162.5t17.5 234.5t8 318v55h711v-1044h-101v954h-514v-28q0 -183 -8.5 -324.5t-22 -240.5t-36.5 -168.5t-47 -110t-60 -63t-68.5 -29t-78.5 -6.5z" />
    <glyph glyph-name="afii10078" unicode="&#x43c;" horiz-adv-x="1413" 
d="M190 0v1044h91l426 -600l426 600h90v-1044h-101v870l-420 -577l-415 577v-870h-97z" />
    <glyph glyph-name="afii10079" unicode="&#x43d;" horiz-adv-x="1275" 
d="M190 0v1044h101v-464h694v464h100v-1044h-100v489h-694v-489h-101z" />
    <glyph glyph-name="afii10080" unicode="&#x43e;" horiz-adv-x="1310" 
d="M653 -25q-113 0 -213 44t-170 118t-110.5 174.5t-40.5 210.5q0 109 41 209t111 174.5t171 119t215 44.5q151 0 274.5 -74.5t192 -200t68.5 -272.5q0 -146 -69 -271t-193.5 -200.5t-276.5 -75.5zM657 70q114 0 212 60.5t156 164.5t58 227q0 188 -126 320.5t-304 132.5
q-116 0 -214 -60.5t-155 -165t-57 -227.5q0 -189 124.5 -320.5t305.5 -131.5z" />
    <glyph glyph-name="afii10081" unicode="&#x43f;" horiz-adv-x="1249" 
d="M190 0v1044h869v-1044h-101v954h-667v-954h-101z" />
    <glyph glyph-name="afii10082" unicode="&#x440;" horiz-adv-x="1351" 
d="M190 -328v1372h101v-233q169 258 430 258q95 0 185.5 -38t162.5 -106t116 -173t44 -230q0 -123 -44 -228t-116 -173.5t-162.5 -107t-185.5 -38.5q-266 0 -430 250v-553h-101zM711 72q176 0 292.5 121t116.5 329q0 100 -33 185.5t-89 143t-130.5 90t-156.5 32.5
q-81 0 -158 -33.5t-136.5 -91.5t-95.5 -144t-36 -184q0 -129 61.5 -233.5t158.5 -159.5t206 -55z" />
    <glyph glyph-name="afii10083" unicode="&#x441;" horiz-adv-x="1169" 
d="M651 -25q-148 0 -270.5 73.5t-192 199t-69.5 274.5q0 148 70 273.5t192.5 199.5t269.5 74q244 0 416 -195l-70 -71q-80 82 -160.5 127t-187.5 45q-114 0 -211 -60.5t-154 -165t-57 -227.5q0 -189 125 -320.5t305 -131.5q187 0 347 178l73 -66q-87 -99 -188.5 -153
t-237.5 -54z" />
    <glyph glyph-name="afii10084" unicode="&#x442;" horiz-adv-x="1005" 
d="M453 0v954h-392v90h883v-90h-391v-954h-100z" />
    <glyph glyph-name="afii10085" unicode="&#x443;" horiz-adv-x="1204" 
d="M317 -334q-104 0 -206 45l34 88q79 -39 179 -39q83 0 141.5 55.5t116.5 190.5l-502 1038h117l434 -933l377 933h110l-452 -1081q-67 -160 -150 -228.5t-199 -68.5z" />
    <glyph glyph-name="afii10086" unicode="&#x444;" horiz-adv-x="1751" 
d="M825 -328v422q-68 -58 -129.5 -88.5t-146.5 -30.5q-192 0 -309 148t-117 403q0 252 117 397.5t309 145.5q87 0 148.5 -31.5t127.5 -91.5v488h101v-488q64 60 126 91.5t150 31.5q192 0 309 -146.5t117 -400.5q0 -252 -117.5 -399.5t-308.5 -147.5q-50 0 -90 8.5t-75 28.5
t-55.5 35.5t-55.5 46.5v-422h-101zM559 72q150 0 266 125v651q-116 125 -266 125q-161 0 -244.5 -120.5t-83.5 -334.5q0 -446 328 -446zM1192 72q328 0 328 450q0 211 -83.5 331t-244.5 120q-150 0 -266 -125v-651q116 -125 266 -125z" />
    <glyph glyph-name="afii10087" unicode="&#x445;" horiz-adv-x="1167" 
d="M92 0l428 532l-411 512h124l353 -442l352 442h121l-412 -509l428 -535h-125l-368 465l-369 -465h-121z" />
    <glyph glyph-name="afii10088" unicode="&#x446;" horiz-adv-x="1288" 
d="M1124 -295v295h-934v1044h101v-954h667v954h101v-954h168l-21 -385h-82z" />
    <glyph glyph-name="afii10089" unicode="&#x447;" horiz-adv-x="1146" 
d="M856 0v457q-72 -41 -177 -74t-198 -33q-158 0 -249 78t-91 225v391h101v-393q0 -96 63 -152.5t172 -56.5q94 0 200 32t179 83v487h100v-1044h-100z" />
    <glyph glyph-name="afii10090" unicode="&#x448;" horiz-adv-x="1837" 
d="M190 0v1044h101v-954h577v954h101v-954h577v954h101v-1044h-1457z" />
    <glyph glyph-name="afii10091" unicode="&#x449;" horiz-adv-x="1875" 
d="M1712 -295v295h-1522v1044h101v-954h577v954h101v-954h577v954h101v-954h168l-21 -385h-82z" />
    <glyph glyph-name="afii10092" unicode="&#x44a;" horiz-adv-x="1267" 
d="M375 0v954h-334v90h434v-401h311q84 0 154.5 -18t126.5 -54.5t87.5 -96.5t31.5 -138q0 -152 -104.5 -244t-276.5 -92h-430zM475 90h313q133 0 211 64t78 178q0 105 -79.5 163t-217.5 58h-305v-463z" />
    <glyph glyph-name="afii10093" unicode="&#x44b;" horiz-adv-x="1501" 
d="M190 0v1044h101v-401h311q83 0 154 -18t126.5 -54.5t87 -96.5t31.5 -138q0 -152 -104 -244t-276 -92h-431zM291 90h313q133 0 211 64t78 178q0 105 -79.5 163t-217.5 58h-305v-463zM1210 0v1044h101v-1044h-101z" />
    <glyph glyph-name="afii10094" unicode="&#x44c;" horiz-adv-x="1083" 
d="M190 0v1044h101v-401h311q83 0 154 -18t126.5 -54.5t87 -96.5t31.5 -138q0 -152 -104 -244t-276 -92h-431zM291 90h313q133 0 211 64t78 178q0 105 -79.5 163t-217.5 58h-305v-463z" />
    <glyph glyph-name="afii10095" unicode="&#x44d;" horiz-adv-x="1169" 
d="M518 -25q-257 0 -426 207l74 64q158 -176 346 -176q171 0 293.5 119.5t134.5 299.5h-549v91h547q-19 167 -139.5 281t-278.5 114q-108 0 -189.5 -45t-158.5 -127l-68 69q57 59 108 98t132 69t174 30q150 0 273 -75.5t191.5 -201.5t68.5 -274q0 -145 -69.5 -269.5
t-193 -199t-270.5 -74.5z" />
    <glyph glyph-name="afii10096" unicode="&#x44e;" horiz-adv-x="1679" 
d="M1053 -25q-144 0 -257 68t-175.5 181.5t-71.5 254.5h-258v-479h-101v1044h101v-473h258q16 210 155 354t353 144q150 0 266.5 -75t177 -199t60.5 -273q0 -147 -61 -271t-178.5 -200t-268.5 -76zM1057 70q121 0 212 61t137 163t46 228q0 193 -110.5 323t-288.5 130
q-121 0 -212 -61.5t-137.5 -163.5t-46.5 -228q0 -193 111 -322.5t289 -129.5z" />
    <glyph glyph-name="afii10097" unicode="&#x44f;" horiz-adv-x="1175" 
d="M106 0l330 416q-131 24 -216 108t-85 209q0 140 102.5 225.5t280.5 85.5h467v-1044h-100v401h-344l-312 -401h-123zM537 492h348v462h-353q-135 0 -211.5 -61.5t-76.5 -165.5q0 -107 82.5 -171t210.5 -64z" />
    <glyph glyph-name="afii10071" unicode="&#x451;" horiz-adv-x="1196" 
d="M631 -25q-102 0 -195.5 40t-163.5 110.5t-111.5 174t-41.5 224.5q0 112 38 212.5t103 173.5t157.5 116t196.5 43q143 0 253.5 -72.5t168.5 -196.5t58 -278q0 -25 -2 -41h-867q13 -188 131.5 -299.5t278.5 -111.5q206 0 358 163l70 -61q-88 -95 -189.5 -146t-242.5 -51z
M225 571h760q-5 81 -31 152.5t-71 129t-115.5 91t-157.5 33.5q-154 0 -262.5 -116t-122.5 -290zM371 1219v163h141v-163h-141zM705 1219v163h141v-163h-141z" />
    <glyph glyph-name="afii10099" unicode="&#x452;" horiz-adv-x="1255" 
d="M668 -25q-105 0 -207 45l35 89q79 -39 178 -39q135 0 223 97.5t88 256.5v197q0 163 -88 259.5t-244 96.5q-155 0 -258.5 -105.5t-103.5 -267.5v-604h-101v1188h-170v92h170v215h101v-215h469v-92h-469v-338q125 219 377 219q194 0 305.5 -119t111.5 -311v-233
q0 -192 -111.5 -311.5t-305.5 -119.5z" />
    <glyph glyph-name="afii10100" unicode="&#x453;" horiz-adv-x="942" 
d="M190 0v1044h691v-90h-590v-954h-101zM422 1219l180 272l125 -61l-219 -211h-86z" />
    <glyph glyph-name="afii10101" unicode="&#x454;" horiz-adv-x="1169" 
d="M651 -25q-147 0 -270 74.5t-192.5 199t-69.5 269.5q0 110 40.5 211t110 176t169 119.5t212.5 44.5q93 0 174 -30t132 -69t108 -98l-68 -69q-77 82 -158.5 127t-189.5 45q-158 0 -279 -114t-141 -281h549v-91h-551q14 -180 136 -299.5t294 -119.5q189 0 347 176l73 -64
q-169 -207 -426 -207z" />
    <glyph glyph-name="afii10102" unicode="&#x455;" horiz-adv-x="1017" 
d="M528 -20q-113 0 -228.5 41.5t-199.5 109.5l60 80q179 -137 375 -137q108 0 179.5 55t71.5 147q0 36 -16 65.5t-38.5 49.5t-62.5 38.5t-73.5 29.5t-85.5 26q-40 12 -57.5 17t-55.5 17.5t-56 21t-49.5 23.5t-47 28.5t-36.5 34t-31 42t-17.5 49t-7.5 58.5q0 126 96 207.5
t248 81.5q93 0 192 -31t178 -84l-53 -84q-160 105 -321 105q-106 0 -172 -52.5t-66 -134.5q0 -28 10 -52t33 -43t45 -33t62 -28.5t66.5 -23t74.5 -22.5q50 -14 85 -25.5t78.5 -30t72.5 -40.5t55.5 -50.5t39.5 -66.5t13 -84q0 -137 -103.5 -221t-257.5 -84z" />
    <glyph glyph-name="afii10103" unicode="&#x456;" horiz-adv-x="509" 
d="M205 0v1044h100v-1044h-100zM193 1317v137h124v-137h-124z" />
    <glyph glyph-name="afii10104" unicode="&#x457;" horiz-adv-x="509" 
d="M18 1219v163h142v-163h-142zM352 1219v163h142v-163h-142zM205 0v1044h100v-1044h-100z" />
    <glyph glyph-name="afii10105" unicode="&#x458;" horiz-adv-x="509" 
d="M82 -334q-43 0 -84 8v88q38 -6 82 -6q57 0 91 37.5t34 108.5v1142h100v-1136q0 -120 -59.5 -181t-163.5 -61zM193 1317v137h124v-137h-124z" />
    <glyph glyph-name="afii10106" unicode="&#x459;" horiz-adv-x="1851" 
d="M123 -16q-57 0 -115 16l19 92q49 -14 79 -14q34 0 57.5 5.5t50.5 26.5t45 59t35.5 105t28 162.5t17.5 234.5t8 318v55h711v-401h311q83 0 154 -18t126.5 -54.5t87 -96.5t31.5 -138q0 -152 -104 -244t-276 -92h-431v954h-514v-28q0 -183 -8.5 -324.5t-22 -240.5
t-36.5 -168.5t-47 -110t-60 -63t-68.5 -29t-78.5 -6.5zM1059 90h313q133 0 211 64t78 178q0 105 -79.5 163t-217.5 58h-305v-463z" />
    <glyph glyph-name="afii10107" unicode="&#x45a;" horiz-adv-x="1878" 
d="M190 0v1044h101v-430h694v430h100v-430h312q85 0 154.5 -16t125.5 -49t87.5 -91t31.5 -136q0 -151 -103.5 -236.5t-277.5 -85.5h-430v524h-694v-524h-101zM1085 90h314q136 0 212.5 57t76.5 170q0 103 -78.5 155t-218.5 52h-306v-434z" />
    <glyph glyph-name="afii10108" unicode="&#x45b;" horiz-adv-x="1255" 
d="M190 0v1188h-170v92h170v215h101v-215h469v-92h-469v-338q125 219 377 219q194 0 305.5 -119t111.5 -311v-639h-100v621q0 163 -88 259.5t-244 96.5q-155 0 -258.5 -105.5t-103.5 -267.5v-604h-101z" />
    <glyph glyph-name="afii10109" unicode="&#x45c;" horiz-adv-x="1138" 
d="M190 0v1044h101v-669l647 669h133l-457 -462l471 -582h-127l-413 510l-254 -256v-254h-101zM457 1219l180 272l125 -61l-219 -211h-86z" />
    <glyph glyph-name="afii10110" unicode="&#x45e;" horiz-adv-x="1204" 
d="M317 -334q-104 0 -206 45l34 88q79 -39 179 -39q83 0 141.5 55.5t116.5 190.5l-502 1038h117l434 -933l377 933h110l-452 -1081q-67 -160 -150 -228.5t-199 -68.5zM631 1214q-106 0 -182 67t-95 169l84 18q40 -149 193 -149q152 0 192 149l84 -18q-19 -102 -94.5 -169
t-181.5 -67z" />
    <glyph glyph-name="afii10193" unicode="&#x45f;" horiz-adv-x="1261" 
d="M582 -295v295h-392v1044h101v-952h667v952h101v-1044h-375v-295h-102z" />
    <glyph glyph-name="afii10050" unicode="&#x490;" horiz-adv-x="1208" 
d="M213 0v1434h784v327h90l21 -426h-789v-1335h-106z" />
    <glyph glyph-name="afii10098" unicode="&#x491;" horiz-adv-x="942" 
d="M190 0v1044h588v295h82l21 -385h-590v-954h-101z" />
    <glyph glyph-name="endash" unicode="&#x2013;" horiz-adv-x="1081" 
d="M143 555v107h795v-107h-795z" />
    <glyph glyph-name="emdash" unicode="&#x2014;" horiz-adv-x="1839" 
d="M143 555v107h1553v-107h-1553z" />
    <glyph glyph-name="quoteleft" unicode="&#x2018;" horiz-adv-x="471" 
d="M158 1051v151q0 95 39 151t131 91l24 -51q-62 -31 -88 -65t-26 -85v-18h55v-174h-135z" />
    <glyph glyph-name="quoteright" unicode="&#x2019;" horiz-adv-x="471" 
d="M143 1040l-24 52q62 31 88 64.5t26 84.5v19h-55v174h135v-152q0 -95 -39 -151t-131 -91z" />
    <glyph glyph-name="quotesinglbase" unicode="&#x201a;" horiz-adv-x="471" 
d="M133 -219l-24 51q62 31 88 65t26 85v18h-55v174h135v-151q0 -95 -39 -151t-131 -91z" />
    <glyph glyph-name="quotedblleft" unicode="&#x201c;" horiz-adv-x="839" 
d="M158 1051v151q0 95 39 151t131 91l24 -51q-62 -31 -88 -65t-26 -85v-18h55v-174h-135zM526 1051v151q0 95 39 151t131 91l25 -51q-62 -31 -88.5 -65t-26.5 -85v-18h56v-174h-136z" />
    <glyph glyph-name="quotedblright" unicode="&#x201d;" horiz-adv-x="839" 
d="M143 1040l-24 52q62 31 88 64.5t26 84.5v19h-55v174h135v-152q0 -95 -39 -151t-131 -91zM512 1040l-25 52q62 31 88.5 65t26.5 84v19h-55v174h135v-152q0 -95 -39 -151t-131 -91z" />
    <glyph glyph-name="quotedblbase" unicode="&#x201e;" horiz-adv-x="839" 
d="M133 -219l-24 51q62 31 88 65t26 85v18h-55v174h135v-151q0 -95 -39 -151t-131 -91zM502 -219l-25 51q62 31 88.5 65t26.5 85v18h-55v174h135v-151q0 -95 -39 -151t-131 -91z" />
    <glyph glyph-name="dagger" unicode="&#x2020;" horiz-adv-x="839" 
d="M375 487l10 586l-256 -14v92l254 -14l-14 297h102l-14 -297l254 14v-92l-256 14l10 -586h-90z" />
    <glyph glyph-name="daggerdbl" unicode="&#x2021;" horiz-adv-x="880" 
d="M389 0l14 297l-253 -14v92l256 -15l-11 357l11 356l-256 -14v92l253 -14l-14 297h103l-15 -297l254 14v-92l-256 14l10 -356l-10 -357l256 15v-92l-254 14l15 -297h-103z" />
    <glyph glyph-name="bullet" unicode="&#x2022;" horiz-adv-x="962" 
d="M481 467q-105 0 -179.5 74.5t-74.5 181.5q0 103 76.5 177.5t177.5 74.5q100 0 177 -75.5t77 -180.5q0 -104 -75 -178t-179 -74z" />
    <glyph glyph-name="ellipsis" unicode="&#x2026;" horiz-adv-x="1392" 
d="M168 0v170h131v-170h-131zM631 0v170h131v-170h-131zM1094 0v170h131v-170h-131z" />
    <glyph glyph-name="perthousand" unicode="&#x2030;" horiz-adv-x="2457" 
d="M262 0l1053 1434h110l-1052 -1434h-111zM1257 -16q-137 0 -225 107.5t-88 258.5q0 149 89.5 258t228.5 109q137 0 225 -108.5t88 -258.5q0 -149 -89.5 -257.5t-228.5 -108.5zM1262 72q90 0 148 79.5t58 198.5t-62 199t-149 80q-89 0 -147.5 -81t-58.5 -198
q0 -120 61.5 -199t149.5 -79zM2028 -16q-137 0 -225.5 107.5t-88.5 258.5q0 149 89.5 258t228.5 109q137 0 225 -108.5t88 -258.5q0 -149 -89 -257.5t-228 -108.5zM2032 72q90 0 148 79.5t58 198.5t-61.5 199t-148.5 80q-90 0 -148.5 -81t-58.5 -198q0 -120 61.5 -199
t149.5 -79zM426 717q-137 0 -225 107.5t-88 258.5q0 97 39 180.5t112.5 135t165.5 51.5q137 0 225 -108.5t88 -258.5q0 -149 -89 -257.5t-228 -108.5zM430 805q90 0 148.5 79.5t58.5 198.5t-62 199t-149 80q-90 0 -148.5 -81t-58.5 -198q0 -120 61.5 -199t149.5 -79z" />
    <glyph glyph-name="guilsinglleft" unicode="&#x2039;" horiz-adv-x="636" 
d="M432 86l-328 428v16l328 428l76 -49l-281 -385l281 -389z" />
    <glyph glyph-name="guilsinglright" unicode="&#x203a;" horiz-adv-x="636" 
d="M205 86l-76 49l281 385l-281 389l76 49l327 -428v-16z" />
    <glyph glyph-name="fraction" unicode="&#x2044;" horiz-adv-x="839" 
d="M-137 -201l958 1753h111l-959 -1753h-110z" />
    <glyph glyph-name="Euro" unicode="&#x20ac;" horiz-adv-x="1474" 
d="M877 -25q-210 0 -364.5 144.5t-207.5 382.5h-184v98h170q-6 56 -6 117q0 70 10 135h-174v98h192q57 224 206 366t343 142q87 0 162 -21t134.5 -61.5t105.5 -90t90 -114.5l-82 -55q-59 85 -114 136.5t-130 81.5t-170 30q-152 0 -270 -114t-170 -300h581v-98h-600
q-10 -62 -10 -135q0 -59 6 -117h604v-98h-585q48 -195 174 -313.5t295 -118.5q126 0 221 67.5t176 194.5l78 -51q-94 -144 -208.5 -225t-272.5 -81z" />
    <glyph glyph-name="afii61352" unicode="&#x2116;" horiz-adv-x="1951" 
d="M133 0v1434h121l825 -1248v1248h103v-1434h-101l-845 1274v-1274h-103zM1360 356v82h487v-82h-487zM1604 598q-114 0 -189.5 79t-75.5 191q0 111 76.5 191t190.5 80t189 -79.5t75 -191.5q0 -111 -76 -190.5t-190 -79.5zM1606 678q78 0 127 54.5t49 135.5q0 80 -51 135.5
t-127 55.5q-77 0 -127 -55t-50 -136q0 -80 51.5 -135t127.5 -55z" />
    <glyph glyph-name="published" unicode="&#x2117;" horiz-adv-x="1699" 
d="M848 -25q-204 0 -374.5 100t-267.5 270.5t-97 371.5q0 149 58 285.5t157 236.5t237 159.5t291 59.5t290.5 -59t235.5 -158.5t155.5 -236t57.5 -287.5q0 -149 -58 -285.5t-157 -237t-237 -160t-291 -59.5zM848 33q191 0 348 92.5t245.5 250.5t88.5 345q0 186 -88 341.5
t-244 247t-346 91.5q-191 0 -348 -92.5t-245.5 -250.5t-88.5 -345q0 -186 88 -341.5t244 -247t346 -91.5zM606 358v750h289q135 0 214 -62.5t79 -177.5q0 -120 -88.5 -183.5t-218.5 -63.5h-185v-263h-90zM696 705h187q99 0 156 42.5t57 120.5t-54.5 117t-152.5 39h-193v-319
z" />
    <glyph glyph-name="trademark" unicode="&#x2122;" horiz-adv-x="1413" 
d="M260 803v561h-207v70h486v-70h-207v-561h-72zM682 803v631h76l246 -375l245 375h74v-631h-72v504l-243 -365h-11l-243 365v-504h-72z" />
    <glyph glyph-name="partialdiff" unicode="&#x2202;" 
d="M0 0v1434h1024v-1434h-1024zM166 100h694l-348 523zM100 197l351 520l-351 520v-1040zM922 197v1040l-351 -520zM512 809l348 522h-694z" />
    <glyph glyph-name="Delta" unicode="&#x2206;" horiz-adv-x="1617" 
d="M111 0l647 1444h102l647 -1444h-1396zM264 98h1084l-541 1229z" />
    <glyph glyph-name="product" unicode="&#x220f;" 
d="M0 0v1434h1024v-1434h-1024zM166 100h694l-348 523zM100 197l351 520l-351 520v-1040zM922 197v1040l-351 -520zM512 809l348 522h-694z" />
    <glyph glyph-name="summation" unicode="&#x2211;" 
d="M0 0v1434h1024v-1434h-1024zM166 100h694l-348 523zM100 197l351 520l-351 520v-1040zM922 197v1040l-351 -520zM512 809l348 522h-694z" />
    <glyph glyph-name="minus" unicode="&#x2212;" horiz-adv-x="1310" 
d="M190 672v104h930v-104h-930z" />
    <glyph glyph-name="radical" unicode="&#x221a;" horiz-adv-x="985" 
d="M1004 1610l-431 -2048h-112l-344 708l-92 -45l-39 82l180 88l340 -708l397 1923h101z" />
    <glyph glyph-name="infinity" unicode="&#x221e;" horiz-adv-x="1478" 
d="M352 444q-121 0 -195.5 79.5t-74.5 201.5q0 121 74 205t192 84q38 0 78 -12t68 -24.5t71 -44t59 -45t62.5 -55.5t54.5 -49q24 20 66 59.5t71 64t68.5 52t83 41t90.5 13.5q121 0 199 -83t78 -206q0 -125 -73.5 -203t-197.5 -78q-55 0 -108.5 18t-105 53.5t-87 66
t-84.5 77.5q-17 -14 -57 -48t-61 -51t-58.5 -43.5t-66.5 -39t-68 -23t-78 -10.5zM354 543q126 0 318 182q-14 11 -67.5 55.5t-84.5 66.5t-80.5 45t-91.5 23q-75 0 -121.5 -56.5t-46.5 -133.5q0 -81 47 -131.5t127 -50.5zM1130 543q77 0 122.5 52t45.5 130q0 85 -45 137.5
t-129 52.5q-41 0 -84.5 -17.5t-89.5 -52t-72.5 -57.5t-68.5 -63q3 -2 38 -33t44 -38t40.5 -32t48.5 -33t45 -22t53.5 -19t51.5 -5z" />
    <glyph glyph-name="integral" unicode="&#x222b;" 
d="M0 0v1434h1024v-1434h-1024zM166 100h694l-348 523zM100 197l351 520l-351 520v-1040zM922 197v1040l-351 -520zM512 809l348 522h-694z" />
    <glyph glyph-name="approxequal" unicode="&#x2248;" horiz-adv-x="1310" 
d="M1190 1024q-12 -112 -73 -188t-169 -76q-77 0 -189 38t-219 75.5t-171 37.5q-70 0 -115 -49t-55 -121h-78q9 56 25 100.5t43 84.5t71 62t102 22q75 0 187 -38t220.5 -76t174.5 -38q71 0 114 46.5t56 119.5h76zM1190 694q-12 -111 -73.5 -187.5t-168.5 -76.5
q-62 0 -146 24t-153.5 52t-148.5 52t-131 24q-70 0 -115 -49t-55 -121h-78q9 56 25 100.5t43 84t71 61.5t102 22q76 0 188 -38t220 -76t174 -38q71 0 114 46.5t56 119.5h76z" />
    <glyph glyph-name="notequal" unicode="&#x2260;" horiz-adv-x="1310" 
d="M190 899v105h551l138 253l86 -45l-113 -208h268v-105h-323l-191 -356h514v-105h-571l-127 -239l-86 47l102 192h-248v105h306l190 356h-496z" />
    <glyph glyph-name="lessequal" unicode="&#x2264;" horiz-adv-x="1310" 
d="M1165 199l-1018 395v111l1018 395v-111l-882 -340l882 -340v-110zM1165 10h-1018v99h1018v-99z" />
    <glyph glyph-name="greaterequal" unicode="&#x2265;" horiz-adv-x="1310" 
d="M1163 594l-1018 -395v110l881 340l-881 340v111l1018 -395v-111zM1163 10h-1018v99h1018v-99z" />
    <glyph glyph-name="lozenge" unicode="&#x25ca;" horiz-adv-x="1310" 
d="M1055 729l-346 -801h-109l-342 801l342 801h109zM946 729l-291 686l-286 -686l286 -686z" />
    <glyph glyph-name="cyrBreve" unicode="&#xf6d1;" 
d="M512 1214q-106 0 -181.5 67t-94.5 169l83 18q40 -149 193 -149t193 149l83 -18q-19 -102 -94.5 -169t-181.5 -67z" />
    <glyph glyph-name="cyrbreve" unicode="&#xf6d4;" 
d="M512 1214q-106 0 -181.5 67t-94.5 169l83 18q40 -149 193 -149t193 149l83 -18q-19 -102 -94.5 -169t-181.5 -67z" />
    <glyph glyph-name="apple" unicode="&#xf8ff;" 
d="M0 0v1434h1024v-1434h-1024zM166 100h694l-348 523zM100 197l351 520l-351 520v-1040zM922 197v1040l-351 -520zM512 809l348 522h-694z" />
    <glyph glyph-name="ff" unicode="&#xfb00;" horiz-adv-x="1482" 
d="M252 0v952h-152v92h152v103q0 180 92 272q82 82 219 82q85 0 156 -24v-95q-89 27 -156 27q-107 0 -159 -65t-52 -199v-101h365v-92h-365v-952h-100zM993 0v952h-151v92h151v103q0 180 92 272q82 82 220 82q85 0 155 -24v-95q-88 27 -155 27q-107 0 -159 -65t-52 -199
v-101h364v-92h-364v-952h-101z" />
    <glyph glyph-name="nbspace" horiz-adv-x="614" 
 />
    </font>
</defs>
</svg>
