<?xml version="1.0" standalone="no"?>
<!DOCTYPE svg PUBLIC "-//W3C//DTD SVG 1.1//EN" "http://www.w3.org/Graphics/SVG/1.1/DTD/svg11.dtd" >
<svg xmlns="http://www.w3.org/2000/svg" xmlns:xlink="http://www.w3.org/1999/xlink" version="1.1">
<metadata>
Created by FontForge 20170731 at Tue Mar  2 19:22:38 2021
 By Aleksey,,,
Copyright (c) 2000 The Hoefler Type Foundry, Inc., dba Hoefler &#38; Frere-Jones. All Rights Reserved.
</metadata>
<defs>
<font id="GothamPro-Medium" horiz-adv-x="1024" >
  <font-face 
    font-family="Gotham Pro Medium"
    font-weight="400"
    font-stretch="normal"
    units-per-em="2048"
    panose-1="2 0 6 3 3 0 0 2 0 4"
    ascent="1638"
    descent="-410"
    x-height="1081"
    cap-height="1434"
    bbox="-143 -338.028 2417 1888"
    underline-thickness="40"
    underline-position="-312"
    unicode-range="U+0020-FB04"
  />
<missing-glyph 
d="M0 0v1434h1024v-1434h-1024zM166 100h694l-348 523zM100 197l351 520l-351 520v-1040zM922 197v1040l-351 -520zM512 809l348 522h-694z" />
    <glyph glyph-name="fi" unicode="fi" horiz-adv-x="1355" 
d="M930 1247v236h266v-236h-266zM211 0v868h-137v207h137v78q0 180 88 268q86 86 244 86q104 0 200 -28v-209q-80 26 -145 26q-143 0 -143 -163v-60h286v-205h-282v-868h-248zM940 0v1081h248v-1081h-248z" />
    <glyph glyph-name="fl" unicode="fl" horiz-adv-x="1355" 
d="M211 0v868h-137v207h137v78q0 180 88 268q86 86 244 86q104 0 200 -28v-209q-80 26 -145 26q-143 0 -143 -163v-60h286v-205h-282v-868h-248zM940 0v1495h248v-1495h-248z" />
    <glyph glyph-name="ffi" unicode="ffi" horiz-adv-x="2125" 
d="M1700 1247v236h266v-236h-266zM981 0v868h-137v207h137v78q0 180 88 268q86 86 242 86q106 0 202 -28v-209q-80 26 -145 26q-143 0 -143 -163v-60h286v-205h-282v-868h-248zM211 0v868h-137v207h137v78q0 180 88 268q86 86 244 86q104 0 200 -28v-209q-80 26 -145 26
q-143 0 -143 -163v-60h286v-205h-282v-868h-248zM1708 0v1081h250v-1081h-250z" />
    <glyph glyph-name="ffl" unicode="ffl" horiz-adv-x="2125" 
d="M981 0v868h-137v207h137v78q0 180 88 268q86 86 242 86q106 0 202 -28v-209q-80 26 -145 26q-143 0 -143 -163v-60h286v-205h-282v-868h-248zM211 0v868h-137v207h137v78q0 180 88 268q86 86 244 86q104 0 200 -28v-209q-80 26 -145 26q-143 0 -143 -163v-60h286v-205
h-282v-868h-248zM1708 0v1495h250v-1495h-250z" />
    <glyph glyph-name=".notdef" 
d="M0 0v1434h1024v-1434h-1024zM166 100h694l-348 523zM100 197l351 520l-351 520v-1040zM922 197v1040l-351 -520zM512 809l348 522h-694z" />
    <glyph glyph-name=".null" horiz-adv-x="0" 
 />
    <glyph glyph-name="nonmarkingreturn" horiz-adv-x="682" 
 />
    <glyph glyph-name="space" unicode=" " horiz-adv-x="614" 
 />
    <glyph glyph-name="exclam" unicode="!" horiz-adv-x="618" 
d="M242 453l-78 909v72h291v-72l-76 -909h-137zM174 0v281h272v-281h-272z" />
    <glyph glyph-name="quotedbl" unicode="&#x22;" horiz-adv-x="997" 
d="M571 821l50 613h280v-11l-201 -602h-129zM123 821l47 613h281v-11l-199 -602h-129z" />
    <glyph glyph-name="numbersign" unicode="#" horiz-adv-x="1433" 
d="M207 0l57 330h-184v213h221l59 356h-204v213h241l56 322h219l-56 -322h336l54 322h219l-56 -322h183v-213h-219l-60 -356h205v-213h-242l-57 -330h-219l57 330h-336l-55 -330h-219zM518 543h336l61 356h-335z" />
    <glyph glyph-name="dollar" unicode="$" horiz-adv-x="1314" 
d="M590 -201v205q-274 31 -490 203l131 186q186 -150 361 -176v401q-230 60 -334 156.5t-104 267.5q0 164 121 270.5t315 121.5v118h166v-122q216 -26 391 -156l-115 -193q-134 101 -278 131v-389q234 -59 339 -159t105 -267q0 -165 -122 -271t-320 -124v-203h-166zM592 866
v361q-95 -7 -146 -54.5t-51 -119.5q0 -67 42 -110t155 -77zM754 209q96 7 149 54t53 124q0 71 -43.5 115t-158.5 78v-371z" />
    <glyph glyph-name="percent" unicode="%" horiz-adv-x="1738" 
d="M434 717q-148 0 -242 106t-94 260q0 153 95.5 260t244.5 107q148 0 242 -106.5t94 -260.5q0 -153 -95.5 -259.5t-244.5 -106.5zM244 0l1048 1434h203l-1049 -1434h-202zM1300 -16q-148 0 -241.5 106t-93.5 260q0 153 95.5 260t244.5 107q148 0 241.5 -106.5t93.5 -260.5
q0 -153 -95.5 -259.5t-244.5 -106.5zM438 874q70 0 112 60t42 149q0 87 -45 148t-113 61q-70 0 -111.5 -60t-41.5 -149t44.5 -149t112.5 -60zM1305 141q70 0 111.5 60t41.5 149q0 87 -45 148t-113 61q-70 0 -111.5 -60t-41.5 -149t45 -149t113 -60z" />
    <glyph glyph-name="ampersand" unicode="&#x26;" horiz-adv-x="1425" 
d="M1178 -29l-191 195q-199 -186 -440 -186q-203 0 -335 113.5t-132 299.5q0 272 305 402q-62 79 -90.5 150.5t-28.5 152.5q0 150 113 255t299 105q168 0 274.5 -100t106.5 -250q0 -253 -316 -373l246 -250q80 119 154 277l190 -100q-99 -199 -194 -328l225 -230zM610 870
q113 41 169.5 95.5t56.5 132.5q0 72 -46 117t-118 45q-76 0 -123 -49.5t-47 -127.5q0 -54 23.5 -100t84.5 -113zM573 188q140 0 271 125l-320 326q-96 -41 -143 -104t-47 -138q0 -91 67.5 -150t171.5 -59z" />
    <glyph glyph-name="quotesingle" unicode="'" horiz-adv-x="550" 
d="M123 821l47 613h285v-11l-201 -602h-131z" />
    <glyph glyph-name="parenleft" unicode="(" horiz-adv-x="901" 
d="M696 -289q-567 312 -567 877q0 287 142 504t425 372l109 -166q-221 -147 -324.5 -315.5t-103.5 -394.5t103.5 -395t324.5 -316z" />
    <glyph glyph-name="parenright" unicode=")" horiz-adv-x="901" 
d="M207 -289l-109 166q221 147 324.5 316t103.5 395t-103.5 394.5t-324.5 315.5l109 166q567 -313 567 -876q0 -564 -567 -877z" />
    <glyph glyph-name="asterisk" unicode="*" horiz-adv-x="880" 
d="M369 782l28 250l-204 -149l-74 125l233 102l-233 102l74 125l204 -149l-28 250h143l-29 -250l205 149l74 -125l-234 -102l234 -102l-74 -125l-205 149l29 -250h-143z" />
    <glyph glyph-name="plus" unicode="+" horiz-adv-x="1310" 
d="M539 217v391h-394v226h394v391h233v-391h393v-226h-393v-391h-233z" />
    <glyph glyph-name="comma" unicode="," horiz-adv-x="550" 
d="M96 -297l-26 104q176 35 176 170q0 4 -1 11.5t-1 11.5h-105v281h273v-238q0 -166 -78.5 -247t-237.5 -93z" />
    <glyph glyph-name="hyphen" unicode="-" horiz-adv-x="835" 
d="M115 506v244h606v-244h-606z" />
    <glyph glyph-name="period" unicode="." horiz-adv-x="550" 
d="M139 0v281h273v-281h-273z" />
    <glyph glyph-name="slash" unicode="/" horiz-adv-x="1067" 
d="M-51 -262l925 1896h216l-926 -1896h-215z" />
    <glyph glyph-name="zero" unicode="0" horiz-adv-x="1482" 
d="M739 -25q-184 0 -327 99t-219 267.5t-76 375.5q0 205 77 373t221 268t328 100q183 0 326.5 -99t220 -267t76.5 -375q0 -153 -45.5 -289t-126 -236t-199 -158.5t-256.5 -58.5zM743 203q109 0 192.5 69t127 185t43.5 260q0 217 -102.5 365.5t-264.5 148.5
q-108 0 -191 -68.5t-127 -184.5t-44 -261q0 -142 44.5 -258.5t128.5 -186t193 -69.5z" />
    <glyph glyph-name="one" unicode="1" horiz-adv-x="811" 
d="M365 0v1188l-259 -72l-53 205l385 123h176v-1444h-249z" />
    <glyph glyph-name="two" unicode="2" horiz-adv-x="1255" 
d="M100 0v199l494 419q151 127 209.5 210t58.5 178q0 103 -65 163t-166 60q-94 0 -169 -51t-163 -164l-178 139q73 103 141.5 165.5t165 99t221.5 36.5q211 0 342 -119t131 -313q0 -67 -15.5 -125t-41.5 -106.5t-76.5 -104t-102 -102.5t-136.5 -117l-295 -246h682v-221
h-1037z" />
    <glyph glyph-name="three" unicode="3" horiz-adv-x="1265" 
d="M637 -25q-342 0 -549 252l176 164q79 -94 170 -141t207 -47q108 0 178 60.5t70 160.5q0 105 -88.5 163t-241.5 58h-117l-41 158l387 411h-620v220h948v-189l-399 -409q89 -13 162.5 -42t133 -77t93 -121.5t33.5 -167.5q0 -199 -140 -326t-362 -127z" />
    <glyph glyph-name="four" unicode="4" horiz-adv-x="1394" 
d="M844 0v322h-723l-47 180l796 942h215v-916h205v-206h-205v-322h-241zM373 528h471v568z" />
    <glyph glyph-name="five" unicode="5" horiz-adv-x="1273" 
d="M623 -25q-300 0 -527 220l156 182q187 -172 369 -172q129 0 206.5 68.5t77.5 183.5q0 108 -82.5 172.5t-214.5 64.5q-131 0 -264 -63l-151 100l40 703h857v-224h-639l-23 -336q112 41 227 41q143 0 253.5 -48.5t177.5 -152.5t67 -253q0 -219 -146 -352.5t-384 -133.5z
" />
    <glyph glyph-name="six" unicode="6" horiz-adv-x="1343" 
d="M690 -25q-247 0 -397 150q-89 89 -132.5 216t-43.5 337q0 132 24.5 249t75 214.5t122.5 168t172.5 109.5t219.5 39q133 0 235.5 -40t202.5 -120l-135 -194q-82 64 -152.5 94.5t-158.5 30.5q-155 0 -245 -125.5t-99 -329.5q68 67 147.5 105.5t194.5 38.5q141 0 253.5 -52
t180.5 -157t68 -246q0 -140 -70 -252t-192 -174t-271 -62zM684 193q131 0 209 74t78 190q0 109 -80.5 179.5t-212.5 70.5q-130 0 -210.5 -73.5t-80.5 -182.5q0 -111 82 -184.5t215 -73.5z" />
    <glyph glyph-name="seven" unicode="7" horiz-adv-x="1247" 
d="M217 0l643 1212h-721v222h1008v-191l-647 -1243h-283z" />
    <glyph glyph-name="eight" unicode="8" horiz-adv-x="1290" 
d="M645 -20q-238 0 -392.5 114t-154.5 299q0 242 258 350q-209 109 -209 324q0 165 142 276t356 111q215 0 356.5 -111t141.5 -280q0 -211 -209 -320q125 -58 191.5 -141t66.5 -207q0 -125 -71.5 -220.5t-195 -145t-280.5 -49.5zM645 827q111 0 183.5 60t72.5 155
q0 85 -71.5 143t-184.5 58q-114 0 -185 -58.5t-71 -144.5q0 -93 72.5 -153t183.5 -60zM645 190q138 0 219.5 62.5t81.5 157.5q0 97 -85.5 157t-215.5 60t-215.5 -61t-85.5 -160q0 -91 82 -153.5t219 -62.5z" />
    <glyph glyph-name="nine" unicode="9" horiz-adv-x="1343" 
d="M612 -25q-140 0 -249 44.5t-209 127.5l137 193q83 -70 159.5 -102.5t167.5 -32.5q156 0 248.5 124t98.5 326q-126 -151 -336 -151q-230 0 -369 124.5t-139 334.5q0 213 149.5 354t384.5 141q132 0 226.5 -37t171.5 -114q85 -85 129.5 -215.5t44.5 -335.5
q0 -230 -72.5 -406.5t-213 -275.5t-329.5 -99zM666 715q132 0 211 75.5t79 186.5q0 114 -82.5 189t-216.5 75q-130 0 -207 -76.5t-77 -193.5q0 -113 80.5 -184.5t212.5 -71.5z" />
    <glyph glyph-name="colon" unicode=":" horiz-adv-x="571" 
d="M150 801v280h272v-280h-272zM150 0v281h272v-281h-272z" />
    <glyph glyph-name="semicolon" unicode=";" horiz-adv-x="571" 
d="M150 801v280h272v-280h-272zM106 -297l-26 104q176 35 176 170q0 4 -1 11.5t-1 11.5h-104v281h272v-238q0 -166 -78.5 -247t-237.5 -93z" />
    <glyph glyph-name="less" unicode="&#x3c;" horiz-adv-x="1310" 
d="M1120 158l-977 452v221l977 453v-235l-731 -326l731 -328v-237z" />
    <glyph glyph-name="equal" unicode="=" horiz-adv-x="1310" 
d="M176 862v230h959v-230h-959zM176 350v230h959v-230h-959z" />
    <glyph glyph-name="greater" unicode="&#x3e;" horiz-adv-x="1310" 
d="M190 158v235l732 326l-732 328v237l977 -453v-221z" />
    <glyph glyph-name="question" unicode="?" horiz-adv-x="1107" 
d="M424 453l-41 331l10 11q379 15 379 233q0 88 -63 141.5t-172 53.5q-181 0 -334 -162l-154 164q200 227 494 227q217 0 348 -113t131 -307q0 -94 -32 -167.5t-89.5 -122t-129.5 -79t-161 -45.5l-20 -165h-166zM365 0v281h274v-281h-274z" />
    <glyph glyph-name="at" unicode="@" horiz-adv-x="2007" 
d="M1022 -332q-129 0 -249.5 32.5t-220.5 90.5t-183 140.5t-140 180.5t-88.5 213t-31.5 236q0 181 70 346t189.5 286t286 193t351.5 72q184 0 350.5 -67.5t284.5 -179t187.5 -259.5t69.5 -305q0 -125 -32 -224t-87.5 -160.5t-126 -93.5t-151.5 -32q-112 0 -188 40.5
t-115 103.5q-140 -144 -317 -144q-158 0 -264.5 107t-106.5 280q0 105 39.5 201t103.5 163.5t149 107.5t173 40q191 0 289 -151l24 123l199 -31l-90 -516q-11 -68 -11 -88q0 -67 43 -106.5t117 -39.5q116 0 193.5 109.5t77.5 310.5q0 112 -39 220.5t-113 200.5t-172 162.5
t-224.5 110t-262.5 39.5q-172 0 -324 -65t-259.5 -175t-170 -261t-62.5 -318q0 -168 62 -318t170.5 -259.5t264.5 -173.5t335 -64q147 0 265.5 33.5t240.5 103.5l37 -61q-253 -154 -543 -154zM936 315q113 0 198 96t85 228q0 97 -61 159t-154 62q-115 0 -200 -93.5
t-85 -229.5q0 -104 60 -163t157 -59z" />
    <glyph glyph-name="A" unicode="A" horiz-adv-x="1617" 
d="M61 0l631 1444h234l630 -1444h-266l-145 346h-678l-148 -346h-258zM559 569h494l-248 574z" />
    <glyph glyph-name="B" unicode="B" horiz-adv-x="1478" 
d="M184 0v1434h643q248 0 375 -127q96 -96 96 -242q0 -214 -204 -320q137 -46 210.5 -128.5t73.5 -223.5q0 -189 -143 -291t-387 -102h-664zM432 829h344q126 0 198.5 50.5t72.5 148.5q0 85 -66 133.5t-186 48.5h-363v-381zM432 223h418q131 0 203.5 51.5t72.5 149.5
q0 92 -74 142t-221 50h-399v-393z" />
    <glyph glyph-name="C" unicode="C" horiz-adv-x="1511" 
d="M850 -25q-205 0 -372.5 98t-262 268t-94.5 376q0 152 55 288t151 236t235 158.5t298 58.5q185 0 316.5 -57.5t244.5 -165.5l-161 -186q-94 86 -190 132t-212 46q-134 0 -243 -68t-169.5 -184.5t-60.5 -257.5q0 -213 135 -361.5t338 -148.5q124 0 217.5 46t194.5 140
l162 -164q-80 -83 -158.5 -136t-186 -85.5t-237.5 -32.5z" />
    <glyph glyph-name="D" unicode="D" horiz-adv-x="1601" 
d="M184 0v1434h535q166 0 309 -55t242 -150.5t155 -228t56 -283.5q0 -150 -56 -282t-155 -228t-242 -151.5t-309 -55.5h-535zM436 229h283q224 0 361 136t137 352q0 213 -137.5 350t-360.5 137h-283v-975z" />
    <glyph glyph-name="E" unicode="E" horiz-adv-x="1372" 
d="M184 0v1434h1063v-226h-811v-372h719v-226h-719v-385h821v-225h-1073z" />
    <glyph glyph-name="F" unicode="F" horiz-adv-x="1343" 
d="M184 0v1434h1067v-230h-815v-391h723v-229h-723v-584h-252z" />
    <glyph glyph-name="G" unicode="G" horiz-adv-x="1605" 
d="M864 -25q-220 0 -390.5 97.5t-261.5 266t-91 378.5q0 149 55.5 284.5t151.5 236.5t235 160.5t297 59.5q180 0 307.5 -47.5t243.5 -146.5l-160 -191q-92 78 -182.5 116t-218.5 38q-129 0 -236.5 -69t-168 -186t-60.5 -255q0 -147 60 -263t171.5 -182.5t255.5 -66.5
q203 0 347 108v269h-367v219h610v-602q-261 -224 -598 -224z" />
    <glyph glyph-name="H" unicode="H" horiz-adv-x="1556" 
d="M184 0v1434h252v-596h684v596h252v-1434h-252v604h-684v-604h-252z" />
    <glyph glyph-name="I" unicode="I" horiz-adv-x="649" 
d="M199 0v1434h252v-1434h-252z" />
    <glyph glyph-name="J" unicode="J" horiz-adv-x="1144" 
d="M502 -20q-291 0 -459 231l166 170q67 -84 134.5 -126t154.5 -42q105 0 166 71.5t61 209.5v940h258v-947q0 -248 -133 -381q-126 -126 -348 -126z" />
    <glyph glyph-name="K" unicode="K" horiz-adv-x="1484" 
d="M184 0v1434h252v-721l682 721h309l-596 -617l623 -817h-305l-490 645l-223 -229v-416h-252z" />
    <glyph glyph-name="L" unicode="L" horiz-adv-x="1267" 
d="M184 0v1434h252v-1205h754v-229h-1006z" />
    <glyph glyph-name="M" unicode="M" horiz-adv-x="1777" 
d="M184 0v1434h269l436 -678l436 678h268v-1434h-252v1028l-452 -676h-8l-449 672v-1024h-248z" />
    <glyph glyph-name="N" unicode="N" horiz-adv-x="1617" 
d="M184 0v1434h234l768 -992v992h248v-1434h-211l-791 1020v-1020h-248z" />
    <glyph glyph-name="O" unicode="O" horiz-adv-x="1740" 
d="M868 -25q-215 0 -387 100.5t-266 269.5t-94 372q0 150 56 285.5t154 236t239 160t302 59.5q162 0 302 -58.5t237.5 -158.5t153 -236t55.5 -288q0 -150 -56 -286t-154 -236.5t-239.5 -160t-302.5 -59.5zM872 207q139 0 250.5 68.5t172.5 184.5t61 257q0 139 -62 255.5
t-174.5 185.5t-251.5 69t-250.5 -68.5t-172 -184.5t-60.5 -257q0 -139 61.5 -255.5t174 -185.5t251.5 -69z" />
    <glyph glyph-name="P" unicode="P" horiz-adv-x="1368" 
d="M184 0v1434h566q250 0 397 -131.5t147 -352.5q0 -156 -78.5 -268.5t-206 -166.5t-288.5 -54h-285v-461h-252zM436 688h293q141 0 225 71.5t84 188.5q0 124 -82.5 190t-226.5 66h-293v-516z" />
    <glyph glyph-name="Q" unicode="Q" horiz-adv-x="1740" 
d="M1477 -43l-172 154q-191 -136 -437 -136q-215 0 -387 100.5t-266 269.5t-94 372q0 150 56 285.5t154 236t239 160t302 59.5q162 0 302 -58.5t237.5 -158.5t153 -236t55.5 -288q0 -248 -145 -441l163 -139zM872 207q137 0 246 69l-246 209l162 185l248 -226q74 115 74 273
q0 139 -62 255.5t-174.5 185.5t-251.5 69t-250.5 -68.5t-172 -184.5t-60.5 -257q0 -139 61.5 -255.5t174 -185.5t251.5 -69z" />
    <glyph glyph-name="R" unicode="R" horiz-adv-x="1480" 
d="M184 0v1434h639q249 0 391 -124t142 -333q0 -170 -92 -279.5t-250 -154.5l387 -543h-297l-356 500h-312v-500h-252zM436 723h369q135 0 215 66t80 178q0 114 -78 175.5t-219 61.5h-367v-481z" />
    <glyph glyph-name="S" unicode="S" horiz-adv-x="1310" 
d="M686 -20q-342 0 -598 229l152 180q107 -93 215 -139.5t237 -46.5q117 0 185.5 49.5t68.5 134.5q0 54 -25 89.5t-95.5 68t-202.5 63.5q-124 29 -205 60.5t-146.5 80.5t-96 119.5t-30.5 169.5q0 184 137.5 300t352.5 116q297 0 520 -180l-135 -191q-199 148 -389 148
q-108 0 -171 -49t-63 -125q0 -57 28.5 -94t100.5 -68t211 -64q239 -58 350 -153.5t111 -269.5q0 -198 -141.5 -313t-370.5 -115z" />
    <glyph glyph-name="T" unicode="T" horiz-adv-x="1327" 
d="M537 0v1200h-455v234h1163v-234h-454v-1200h-254z" />
    <glyph glyph-name="U" unicode="U" horiz-adv-x="1550" 
d="M772 -23q-285 0 -447.5 162t-162.5 469v826h252v-816q0 -197 95.5 -303t266.5 -106q170 0 265.5 102t95.5 297v826h252v-813q0 -314 -164.5 -479t-452.5 -165z" />
    <glyph glyph-name="V" unicode="V" horiz-adv-x="1536" 
d="M657 -10l-596 1444h279l432 -1102l430 1102h273l-596 -1444h-222z" />
    <glyph glyph-name="W" unicode="W" horiz-adv-x="2285" 
d="M573 -10l-499 1444h272l342 -1063l352 1067h213l353 -1067l342 1063h264l-500 -1444h-217l-352 1030l-352 -1030h-218z" />
    <glyph glyph-name="X" unicode="X" horiz-adv-x="1492" 
d="M76 0l522 729l-502 705h297l357 -514l358 514h289l-500 -701l520 -733h-297l-377 543l-378 -543h-289z" />
    <glyph glyph-name="Y" unicode="Y" horiz-adv-x="1466" 
d="M606 0v565l-569 869h297l401 -635l406 635h289l-570 -863v-571h-254z" />
    <glyph glyph-name="Z" unicode="Z" horiz-adv-x="1437" 
d="M133 0v186l846 1024h-819v224h1147v-187l-846 -1024h846v-223h-1174z" />
    <glyph glyph-name="bracketleft" unicode="[" horiz-adv-x="929" 
d="M180 -266v1700h629v-195h-393v-1311h393v-194h-629z" />
    <glyph glyph-name="backslash" unicode="\" horiz-adv-x="1067" 
d="M903 -262l-926 1896h216l925 -1896h-215z" />
    <glyph glyph-name="bracketright" unicode="]" horiz-adv-x="929" 
d="M121 -266v194h393v1311h-393v195h631v-1700h-631z" />
    <glyph glyph-name="asciicircum" unicode="^" 
d="M115 1010l309 426h176l309 -426h-190l-209 270l-209 -270h-186z" />
    <glyph glyph-name="underscore" unicode="_" horiz-adv-x="1228" 
d="M-4 -328v193h1237v-193h-1237z" />
    <glyph glyph-name="grave" unicode="`" 
d="M504 1219l-250 235l225 100l217 -335h-192z" />
    <glyph glyph-name="a" unicode="a" horiz-adv-x="1202" 
d="M1063 0h-246v133q-131 -156 -350 -156q-105 0 -191 37.5t-140 115.5t-54 185q0 174 120.5 264.5t317.5 90.5q159 0 299 -45v20q0 113 -68.5 172.5t-197.5 59.5q-146 0 -309 -68l-68 199q100 45 194.5 67.5t217.5 22.5q236 0 355.5 -118.5t119.5 -338.5v-641zM823 391v62
q-108 43 -248 43q-117 0 -182 -45t-65 -127q0 -74 59 -117t150 -43q124 0 205 63.5t81 163.5z" />
    <glyph glyph-name="b" unicode="b" horiz-adv-x="1372" 
d="M770 -23q-222 0 -367 191v-168h-247v1495h247v-594q144 203 367 203q97 0 187 -38t161 -108t113.5 -179t42.5 -240q0 -130 -42.5 -238t-113 -178t-160.5 -108t-188 -38zM713 193q131 0 220 95.5t89 254.5q0 153 -90 249.5t-219 96.5q-130 0 -223 -98t-93 -252
q0 -152 93 -249t223 -97z" />
    <glyph glyph-name="c" unicode="c" horiz-adv-x="1169" 
d="M655 -25q-158 0 -286.5 76t-200.5 205t-72 283q0 152 72 281.5t201.5 206.5t287.5 77q145 0 248.5 -48t184.5 -138l-154 -166q-63 66 -128 100.5t-153 34.5q-134 0 -222.5 -101t-88.5 -247q0 -147 91.5 -248t232.5 -101q82 0 149 35t131 101l150 -148
q-88 -99 -191.5 -151t-251.5 -52z" />
    <glyph glyph-name="d" unicode="d" horiz-adv-x="1372" 
d="M602 -23q-96 0 -185.5 38.5t-160.5 108t-113.5 179t-42.5 240.5q0 130 42 238t112.5 177.5t160 107.5t187.5 38q220 0 369 -191v582h248v-1495h-248v180q-144 -203 -369 -203zM662 193q129 0 221 98t92 252q0 152 -92 249t-221 97q-132 0 -222 -95.5t-90 -254.5
q0 -153 91 -249.5t221 -96.5z" />
    <glyph glyph-name="e" unicode="e" horiz-adv-x="1236" 
d="M651 -25q-156 0 -282 70t-199.5 200t-73.5 296q0 154 67 282.5t189 204.5t273 76q101 0 186 -30.5t145.5 -84.5t103 -127.5t63 -159.5t20.5 -180q0 -45 -4 -69h-795q20 -130 104.5 -202.5t206.5 -72.5q88 0 157 31.5t136 97.5l146 -129q-168 -203 -443 -203zM342 616h555
q-13 126 -84.5 205.5t-189.5 79.5q-112 0 -187.5 -78.5t-93.5 -206.5z" />
    <glyph glyph-name="f" unicode="f" horiz-adv-x="770" 
d="M211 0v868h-137v207h137v78q0 180 88 268q86 86 244 86q104 0 200 -28v-209q-80 26 -145 26q-143 0 -143 -163v-60h286v-205h-282v-868h-248z" />
    <glyph glyph-name="g" unicode="g" horiz-adv-x="1372" 
d="M637 -332q-270 0 -483 129l92 187q184 -115 385 -115q166 0 254 85t88 247v84q-74 -96 -164.5 -147.5t-216.5 -51.5q-96 0 -184 35t-157 98.5t-110 161.5t-41 215q0 116 41.5 213.5t110.5 161t157 98.5t183 35q126 0 216.5 -49.5t162.5 -134.5v161h248v-860
q0 -269 -138 -407q-146 -146 -444 -146zM657 295q132 0 225 85t93 216t-93 215t-225 84q-131 0 -219 -83.5t-88 -217.5q0 -131 88.5 -215t218.5 -84z" />
    <glyph glyph-name="h" unicode="h" horiz-adv-x="1269" 
d="M156 0v1495h247v-582q131 191 338 191q181 0 283 -112.5t102 -303.5v-688h-247v614q0 126 -61 195.5t-171 69.5q-109 0 -176.5 -72.5t-67.5 -196.5v-610h-247z" />
    <glyph glyph-name="i" unicode="i" horiz-adv-x="585" 
d="M160 1247v236h266v-236h-266zM170 0v1081h248v-1081h-248z" />
    <glyph glyph-name="j" unicode="j" horiz-adv-x="585" 
d="M160 1247v236h266v-236h-266zM102 -334q-53 0 -118 10v199q37 -6 69 -6q117 0 117 131v1081h248v-1095q0 -320 -316 -320z" />
    <glyph glyph-name="k" unicode="k" horiz-adv-x="1191" 
d="M156 0v1495h247v-893l449 479h301l-430 -440l444 -641h-286l-326 467l-152 -158v-309h-247z" />
    <glyph glyph-name="l" unicode="l" horiz-adv-x="585" 
d="M170 0v1495h248v-1495h-248z" />
    <glyph glyph-name="m" unicode="m" horiz-adv-x="1945" 
d="M156 0v1081h247v-163q62 86 139.5 136t190.5 50q114 0 196 -51t126 -140q146 191 366 191q178 0 278.5 -108.5t100.5 -305.5v-690h-248v614q0 128 -57 196.5t-162 68.5q-104 0 -167.5 -70.5t-63.5 -198.5v-610h-248v616q0 125 -58 194t-161 69q-104 0 -168 -73t-64 -198
v-608h-247z" />
    <glyph glyph-name="n" unicode="n" horiz-adv-x="1269" 
d="M156 0v1081h247v-168q131 191 338 191q181 0 283 -112.5t102 -303.5v-688h-247v614q0 126 -61 195.5t-171 69.5q-109 0 -176.5 -72.5t-67.5 -196.5v-610h-247z" />
    <glyph glyph-name="o" unicode="o" horiz-adv-x="1345" 
d="M670 -25q-162 0 -294 76t-206 205t-74 283q0 153 74.5 282.5t208 206t295.5 76.5q163 0 295 -75.5t206 -205t74 -284.5q0 -114 -44 -217.5t-120 -180t-184 -121.5t-231 -45zM674 190q147 0 237 101t90 248q0 145 -93.5 246.5t-237.5 101.5q-146 0 -236 -100t-90 -248
q0 -144 94 -246.5t236 -102.5z" />
    <glyph glyph-name="p" unicode="p" horiz-adv-x="1372" 
d="M156 -328v1409h247v-180q144 203 367 203q97 0 187 -38t161 -108t113.5 -179t42.5 -240q0 -130 -42.5 -238t-113 -178t-160.5 -108t-188 -38q-222 0 -367 191v-496h-247zM713 193q131 0 220 95.5t89 254.5q0 153 -90 249.5t-219 96.5q-130 0 -223 -98t-93 -252
q0 -152 93 -249t223 -97z" />
    <glyph glyph-name="q" unicode="q" horiz-adv-x="1372" 
d="M971 -328v508q-144 -203 -369 -203q-96 0 -185.5 38.5t-160.5 108t-113.5 179t-42.5 240.5q0 130 42 238t112.5 177.5t160 107.5t187.5 38q220 0 369 -191v168h248v-1409h-248zM662 193q129 0 221 98t92 252q0 152 -92 249t-221 97q-132 0 -222 -95.5t-90 -254.5
q0 -153 91 -249.5t221 -96.5z" />
    <glyph glyph-name="r" unicode="r" horiz-adv-x="845" 
d="M156 0v1081h247v-243q54 128 150 199t233 65v-262h-14q-168 0 -268.5 -109.5t-100.5 -318.5v-412h-247z" />
    <glyph glyph-name="s" unicode="s" 
d="M526 -20q-118 0 -238.5 41.5t-219.5 119.5l110 168q177 -133 354 -133q79 0 123.5 32t44.5 89q0 23 -11.5 41.5t-30 31.5t-47 25.5t-57.5 21.5t-66 20q-7 2 -11 3l-18 6q-58 17 -98 31.5t-89 42t-79 59t-51 81t-21 110.5q0 150 109.5 240t275.5 90q100 0 205 -32.5
t192 -90.5l-98 -176q-168 102 -305 102q-71 0 -111.5 -30.5t-40.5 -81.5q0 -18 7 -33.5t25.5 -29t33.5 -23t47.5 -22t50.5 -19t59 -19.5q3 -1 10.5 -3t10.5 -3q56 -17 96.5 -33t89 -43.5t78.5 -59t51 -79.5t21 -105q0 -164 -112.5 -251.5t-289.5 -87.5z" />
    <glyph glyph-name="t" unicode="t" horiz-adv-x="839" 
d="M518 -18q-311 0 -311 317v569h-137v213h137v297h248v-297h290v-213h-290v-530q0 -135 133 -135q80 0 153 37v-203q-96 -55 -223 -55z" />
    <glyph glyph-name="u" unicode="u" horiz-adv-x="1269" 
d="M528 -23q-181 0 -283 112.5t-102 303.5v688h248v-614q0 -126 61 -195t171 -69q109 0 176 72t67 196v610h248v-1081h-248v168q-131 -191 -338 -191z" />
    <glyph glyph-name="v" unicode="v" horiz-adv-x="1218" 
d="M498 -8l-445 1089h266l291 -794l293 794h260l-442 -1089h-223z" />
    <glyph glyph-name="w" unicode="w" horiz-adv-x="1763" 
d="M416 -8l-350 1089h253l218 -741l239 745h211l242 -745l221 741h248l-355 -1089h-221l-241 739l-244 -739h-221z" />
    <glyph glyph-name="x" unicode="x" horiz-adv-x="1187" 
d="M61 0l398 549l-383 532h270l250 -356l250 356h264l-383 -526l399 -555h-270l-266 379l-264 -379h-265z" />
    <glyph glyph-name="y" unicode="y" horiz-adv-x="1220" 
d="M377 -334q-134 0 -256 66l84 184q74 -41 145 -41q53 0 88.5 28t65.5 97l-451 1081h264l308 -802l280 802h258l-430 -1112q-65 -166 -145.5 -234.5t-210.5 -68.5z" />
    <glyph glyph-name="z" unicode="z" horiz-adv-x="1146" 
d="M106 0v170l625 709h-602v202h918v-170l-625 -708h625v-203h-941z" />
    <glyph glyph-name="braceleft" unicode="{" horiz-adv-x="997" 
d="M852 -289q-138 25 -230 62t-143 90t-71.5 114t-20.5 144q0 15 2 72t2 75q0 121 -52.5 173.5t-178.5 52.5h-54v188h54q126 0 178.5 52t52.5 173q0 18 -2 75.5t-2 72.5q0 83 20.5 144t72 113.5t143 89.5t229.5 62l43 -164q-93 -26 -147.5 -50.5t-84 -59.5t-38.5 -72t-9 -98
q0 -20 2.5 -75t2.5 -77q0 -115 -53.5 -180.5t-159.5 -99.5q108 -35 160.5 -100t52.5 -181q0 -22 -2.5 -76.5t-2.5 -74.5q0 -61 9 -98.5t38.5 -72t84 -59.5t147.5 -51z" />
    <glyph glyph-name="bar" unicode="|" horiz-adv-x="677" 
d="M240 -262v1896h198v-1896h-198z" />
    <glyph glyph-name="braceright" unicode="}" horiz-adv-x="997" 
d="M145 -289l-43 164q93 26 147.5 51t84 59.5t38.5 72t9 98.5q0 20 -2 74.5t-2 76.5q0 115 53.5 181t159.5 100q-108 35 -160.5 100t-52.5 180q0 22 2 77t2 75q0 61 -9 98t-38.5 72t-84 59.5t-147.5 50.5l43 164q138 -25 229.5 -62t143 -89.5t72 -113.5t20.5 -144
q0 -15 -2 -72.5t-2 -75.5q0 -121 52.5 -173t179.5 -52h53v-188h-53q-126 0 -179 -52.5t-53 -173.5q0 -18 2 -75t2 -72q0 -83 -20.5 -144t-71.5 -114t-143 -90t-230 -62z" />
    <glyph glyph-name="asciitilde" unicode="~" horiz-adv-x="1013" 
d="M258 469l-137 43q36 130 87.5 192t141.5 62q62 0 162 -41t131 -41q42 0 66 23t47 79l137 -41q-36 -132 -87.5 -194t-141.5 -62q-62 0 -162 41t-131 41q-42 0 -66 -23t-47 -79z" />
    <glyph glyph-name="nbspace" unicode="&#xa0;" horiz-adv-x="614" 
 />
    <glyph glyph-name="exclamdown" unicode="&#xa1;" horiz-adv-x="618" 
d="M174 1153v281h272v-281h-272zM164 0v72l78 909h137l76 -909v-72h-291z" />
    <glyph glyph-name="cent" unicode="&#xa2;" horiz-adv-x="1189" 
d="M430 -12l41 209q-163 58 -264 202.5t-101 327.5q0 153 72 282t201 205t287 76h18l31 156h180l-37 -182q133 -41 242 -160l-150 -160q-72 72 -141 103l-133 -668q148 3 282 133l144 -141q-181 -207 -445 -207h-12l-35 -176h-180zM522 414l129 661q-130 -3 -216.5 -103
t-86.5 -245q0 -103 46.5 -186.5t127.5 -126.5z" />
    <glyph glyph-name="sterling" unicode="&#xa3;" horiz-adv-x="1318" 
d="M129 0v160l162 49v360h-162v213h162v189q0 225 124 354t347 129q158 0 263.5 -60t188.5 -169l-192 -154q-60 77 -118.5 113.5t-139.5 36.5q-101 0 -160 -69t-59 -187v-183h510v-213h-510v-350h665v-219h-1081z" />
    <glyph glyph-name="currency" unicode="&#xa4;" horiz-adv-x="1474" 
d="M889 -25q-223 0 -379.5 132t-216.5 354h-187v174h158q-2 27 -2 82q0 63 4 92h-160v174h193q63 214 217 344.5t365 130.5q91 0 167 -19.5t136 -57.5t106 -84t90 -109l-190 -141q-70 96 -141.5 141t-174.5 45q-107 0 -189.5 -66.5t-125.5 -183.5h440v-174h-479
q-4 -54 -4 -92q0 -28 4 -82h479v-174h-442q42 -122 129 -191t205 -69q66 0 121.5 24t98 63.5t93.5 106.5l180 -131q-63 -91 -129 -151.5t-160 -99t-206 -38.5z" />
    <glyph glyph-name="yen" unicode="&#xa5;" horiz-adv-x="1404" 
d="M582 0v209h-396v182h396v150h-396v182h326l-473 711h293l375 -600l374 600h285l-475 -711h328v-182h-396v-150h396v-182h-396v-209h-241z" />
    <glyph glyph-name="brokenbar" unicode="&#xa6;" horiz-adv-x="454" 
d="M109 -182v512h233v-512h-233zM109 842v512h233v-512h-233z" />
    <glyph glyph-name="section" unicode="&#xa7;" horiz-adv-x="1294" 
d="M668 -20q-289 0 -473 194l141 139q155 -145 330 -145q82 0 123.5 28t41.5 76q0 46 -58 78t-212 66q-241 55 -341.5 122.5t-100.5 180.5q0 179 219 237q-113 72 -113 199q0 137 107.5 218t294.5 81q289 0 473 -194l-142 -140q-156 146 -329 146q-80 0 -123 -28.5
t-43 -76.5q0 -44 55.5 -75t214.5 -68q242 -55 342.5 -122t100.5 -181q0 -93 -59.5 -152t-160.5 -86q54 -32 83.5 -84t29.5 -114q0 -136 -107 -217.5t-294 -81.5zM795 569q69 0 113 32t44 83q0 45 -55 78t-184 65q-143 37 -213 37q-69 0 -113.5 -31.5t-44.5 -82.5
q0 -45 55.5 -78.5t184.5 -65.5q143 -37 213 -37z" />
    <glyph glyph-name="dieresis" unicode="&#xa8;" 
d="M590 1219v241h252v-241h-252zM182 1219v241h252v-241h-252z" />
    <glyph glyph-name="copyright" unicode="&#xa9;" horiz-adv-x="1699" 
d="M848 -25q-204 0 -374.5 100t-267.5 270.5t-97 371.5q0 149 58 285.5t157 236.5t237 159.5t291 59.5t290.5 -59t235.5 -158.5t155.5 -236t57.5 -287.5q0 -149 -58 -285.5t-157 -237t-237 -160t-291 -59.5zM848 49q186 0 339 90t239.5 244.5t86.5 337.5q0 181 -86 333
t-238 241t-337 89q-186 0 -339.5 -90t-240 -244t-86.5 -337q0 -181 86 -333.5t238.5 -241.5t337.5 -89zM858 326q-168 0 -280.5 115.5t-112.5 285.5q0 167 113 284t284 117q102 0 173 -30.5t132 -89.5l-96 -111q-102 92 -209 92q-103 0 -172 -76.5t-69 -187.5
q0 -107 69 -183.5t172 -76.5q65 0 113 23.5t100 72.5l99 -96q-66 -69 -139.5 -104t-176.5 -35z" />
    <glyph glyph-name="ordfeminine" unicode="&#xaa;" horiz-adv-x="798" 
d="M326 825q-90 0 -150.5 49.5t-60.5 139.5q0 92 67 141t178 49q74 0 156 -22v10q0 60 -37 92.5t-106 32.5q-73 0 -170 -39l-39 111q108 51 227 51q133 0 197.5 -65.5t64.5 -184.5v-352h-139v69q-72 -82 -188 -82zM109 578v118h553v-118h-553zM362 930q66 0 110 34.5
t44 88.5v37q-64 22 -129 22q-62 0 -96.5 -25t-34.5 -71q0 -39 29.5 -62.5t76.5 -23.5z" />
    <glyph glyph-name="guillemotleft" unicode="&#xab;" horiz-adv-x="1241" 
d="M944 84l-338 448v17l338 450l189 -96l-271 -360l271 -363zM430 84l-340 448v17l340 450l188 -96l-270 -360l270 -363z" />
    <glyph glyph-name="logicalnot" unicode="&#xac;" horiz-adv-x="1310" 
d="M903 504v354h-735v227h969v-581h-234z" />
    <glyph glyph-name="uni00AD" unicode="&#xad;" horiz-adv-x="835" 
d="M115 506v244h606v-244h-606z" />
    <glyph glyph-name="registered" unicode="&#xae;" horiz-adv-x="1699" 
d="M848 -25q-204 0 -374.5 100t-267.5 270.5t-97 371.5q0 149 58 285.5t157 236.5t237 159.5t291 59.5t290.5 -59t235.5 -158.5t155.5 -236t57.5 -287.5q0 -149 -58 -285.5t-157 -237t-237 -160t-291 -59.5zM848 49q186 0 339 90t239.5 244.5t86.5 337.5q0 181 -86 333
t-238 241t-337 89q-186 0 -339.5 -90t-240 -244t-86.5 -337q0 -181 86 -333.5t238.5 -241.5t337.5 -89zM551 350v776h346q152 0 236 -84q63 -60 63 -165q0 -91 -48.5 -150.5t-131.5 -83.5l209 -293h-176l-193 268h-158v-268h-147zM698 748h193q72 0 112.5 33t40.5 91
t-40.5 89.5t-112.5 31.5h-193v-245z" />
    <glyph glyph-name="macron" unicode="&#xaf;" 
d="M162 1229v182h700v-182h-700z" />
    <glyph glyph-name="degree" unicode="&#xb0;" horiz-adv-x="964" 
d="M481 780q-134 0 -237 99.5t-103 232.5v4q0 133 103 231.5t237 98.5q136 0 239 -98.5t103 -231.5v-4q0 -133 -103 -232.5t-239 -99.5zM481 915q83 0 139 58.5t56 138.5v4q0 80 -56 137.5t-139 57.5q-82 0 -137 -57.5t-55 -137.5v-4q0 -80 55 -138.5t137 -58.5z" />
    <glyph glyph-name="plusminus" unicode="&#xb1;" horiz-adv-x="1310" 
d="M154 33v213h1003v-213h-1003zM539 360v314h-398v223h398v311h233v-311h393v-223h-393v-314h-233z" />
    <glyph glyph-name="twosuperior" unicode="&#xb2;" 
d="M0 0v1434h1024v-1434h-1024zM166 100h694l-348 523zM100 197l351 520l-351 520v-1040zM922 197v1040l-351 -520zM512 809l348 522h-694z" />
    <glyph glyph-name="threesuperior" unicode="&#xb3;" 
d="M0 0v1434h1024v-1434h-1024zM166 100h694l-348 523zM100 197l351 520l-351 520v-1040zM922 197v1040l-351 -520zM512 809l348 522h-694z" />
    <glyph glyph-name="acute" unicode="&#xb4;" 
d="M328 1219l217 335l225 -100l-250 -235h-192z" />
    <glyph glyph-name="mu" unicode="&#xb5;" horiz-adv-x="1286" 
d="M154 -328v1409h247v-618q0 -112 65.5 -190t166.5 -78q111 0 180.5 76.5t69.5 201.5v608h247v-1081h-247v170q-50 -82 -129 -132t-183 -50q-119 0 -170 73v-389h-247z" />
    <glyph glyph-name="paragraph" unicode="&#xb6;" horiz-adv-x="1140" 
d="M709 0v500h-37q-171 0 -302.5 52t-209.5 159.5t-78 257.5q0 215 152.5 340t402.5 125h326v-1434h-254z" />
    <glyph glyph-name="periodcentered" unicode="&#xb7;" horiz-adv-x="550" 
d="M139 487v281h273v-281h-273z" />
    <glyph glyph-name="cedilla" unicode="&#xb8;" 
d="M485 -338l-217 90l185 268h186z" />
    <glyph glyph-name="onesuperior" unicode="&#xb9;" 
d="M0 0v1434h1024v-1434h-1024zM166 100h694l-348 523zM100 197l351 520l-351 520v-1040zM922 197v1040l-351 -520zM512 809l348 522h-694z" />
    <glyph glyph-name="ordmasculine" unicode="&#xba;" horiz-adv-x="798" 
d="M397 823q-131 0 -219 90.5t-88 221.5q0 129 89.5 219t221.5 90q131 0 219.5 -90t88.5 -221q0 -129 -90 -219.5t-222 -90.5zM104 578v118h590v-118h-590zM401 950q73 0 118.5 53.5t45.5 131.5q0 75 -48 128.5t-120 53.5q-73 0 -118.5 -53t-45.5 -131q0 -75 48 -129
t120 -54z" />
    <glyph glyph-name="guillemotright" unicode="&#xbb;" horiz-adv-x="1241" 
d="M811 84l-188 94l270 361l-270 362l188 98l340 -450v-17zM297 84l-188 94l270 361l-270 362l188 98l338 -450v-17z" />
    <glyph glyph-name="onequarter" unicode="&#xbc;" 
d="M0 0v1434h1024v-1434h-1024zM166 100h694l-348 523zM100 197l351 520l-351 520v-1040zM922 197v1040l-351 -520zM512 809l348 522h-694z" />
    <glyph glyph-name="onehalf" unicode="&#xbd;" 
d="M0 0v1434h1024v-1434h-1024zM166 100h694l-348 523zM100 197l351 520l-351 520v-1040zM922 197v1040l-351 -520zM512 809l348 522h-694z" />
    <glyph glyph-name="threequarters" unicode="&#xbe;" 
d="M0 0v1434h1024v-1434h-1024zM166 100h694l-348 523zM100 197l351 520l-351 520v-1040zM922 197v1040l-351 -520zM512 809l348 522h-694z" />
    <glyph glyph-name="questiondown" unicode="&#xbf;" horiz-adv-x="1107" 
d="M469 1153v281h274v-281h-274zM565 -18q-217 0 -348 113t-131 306q0 94 32 167.5t89.5 122t129.5 79t161 45.5l20 166h166l41 -332l-10 -10q-379 -15 -379 -233q0 -88 63 -141.5t172 -53.5q181 0 334 162l154 -164q-200 -227 -494 -227z" />
    <glyph glyph-name="Agrave" unicode="&#xc0;" horiz-adv-x="1617" 
d="M61 0l631 1444h234l630 -1444h-266l-145 346h-678l-148 -346h-258zM559 569h494l-248 574zM719 1552l-250 236l225 100l217 -336h-192z" />
    <glyph glyph-name="Aacute" unicode="&#xc1;" horiz-adv-x="1617" 
d="M61 0l631 1444h234l630 -1444h-266l-145 346h-678l-148 -346h-258zM559 569h494l-248 574zM707 1552l217 336l225 -100l-250 -236h-192z" />
    <glyph glyph-name="Acircumflex" unicode="&#xc2;" horiz-adv-x="1617" 
d="M61 0l631 1444h234l630 -1444h-266l-145 346h-678l-148 -346h-258zM559 569h494l-248 574zM457 1550l237 299h230l237 -299h-196l-158 138l-158 -138h-192z" />
    <glyph glyph-name="Atilde" unicode="&#xc3;" horiz-adv-x="1617" 
d="M61 0l631 1444h234l630 -1444h-266l-145 346h-678l-148 -346h-258zM559 569h494l-248 574zM559 1532l-137 41q36 132 87.5 194t141.5 62q61 0 162 -41t133 -41q42 0 65 22.5t48 79.5l137 -43q-36 -130 -87.5 -192t-141.5 -62q-61 0 -162 41t-133 41q-42 0 -65 -22.5
t-48 -79.5z" />
    <glyph glyph-name="Adieresis" unicode="&#xc4;" horiz-adv-x="1617" 
d="M61 0l631 1444h234l630 -1444h-266l-145 346h-678l-148 -346h-258zM559 569h494l-248 574zM887 1552v242h252v-242h-252zM479 1552v242h252v-242h-252z" />
    <glyph glyph-name="Aring" unicode="&#xc5;" horiz-adv-x="1617" 
d="M61 0l611 1401q-97 72 -97 182q0 90 70.5 156.5t163.5 66.5t163 -67t70 -160q0 -106 -96 -178l610 -1401h-266l-145 346h-678l-148 -346h-258zM809 1454q53 0 90 37.5t37 91.5q0 51 -37.5 88t-89.5 37q-53 0 -90 -37.5t-37 -91.5q0 -51 37.5 -88t89.5 -37zM559 569h494
l-248 574z" />
    <glyph glyph-name="AE" unicode="&#xc6;" horiz-adv-x="2140" 
d="M25 0l800 1434h1190v-226h-766v-372h674v-226h-674v-385h776v-225h-1028v346h-522l-190 -346h-260zM596 569h401v645h-41z" />
    <glyph glyph-name="Ccedilla" unicode="&#xc7;" horiz-adv-x="1511" 
d="M760 -338l-215 90l162 238q-170 31 -303.5 133.5t-208 257.5t-74.5 336q0 152 55 288t151 236t235 158.5t298 58.5q185 0 316.5 -57.5t244.5 -165.5l-161 -186q-94 86 -190 132t-212 46q-134 0 -243 -68t-169.5 -184.5t-60.5 -257.5q0 -213 135 -361.5t338 -148.5
q124 0 217.5 46t194.5 140l162 -164q-113 -118 -238.5 -181.5t-298.5 -70.5z" />
    <glyph glyph-name="Egrave" unicode="&#xc8;" horiz-adv-x="1372" 
d="M184 0v1434h1063v-226h-811v-372h719v-226h-719v-385h821v-225h-1073zM670 1552l-250 236l225 100l217 -336h-192z" />
    <glyph glyph-name="Eacute" unicode="&#xc9;" horiz-adv-x="1372" 
d="M184 0v1434h1063v-226h-811v-372h719v-226h-719v-385h821v-225h-1073zM567 1552l217 336l226 -100l-250 -236h-193z" />
    <glyph glyph-name="Ecircumflex" unicode="&#xca;" horiz-adv-x="1372" 
d="M184 0v1434h1063v-226h-811v-372h719v-226h-719v-385h821v-225h-1073zM358 1552l238 299h229l238 -299h-197l-157 138l-158 -138h-193z" />
    <glyph glyph-name="Edieresis" unicode="&#xcb;" horiz-adv-x="1372" 
d="M184 0v1434h1063v-226h-811v-372h719v-226h-719v-385h821v-225h-1073zM788 1552v242h252v-242h-252zM381 1552v242h252v-242h-252z" />
    <glyph glyph-name="Igrave" unicode="&#xcc;" horiz-adv-x="649" 
d="M199 0v1434h252v-1434h-252zM238 1552l-250 236l225 100l217 -336h-192z" />
    <glyph glyph-name="Iacute" unicode="&#xcd;" horiz-adv-x="649" 
d="M199 0v1434h252v-1434h-252zM221 1552l217 336l226 -100l-250 -236h-193z" />
    <glyph glyph-name="Icircumflex" unicode="&#xce;" horiz-adv-x="649" 
d="M199 0v1434h252v-1434h-252zM-27 1552l238 299h229l238 -299h-197l-157 138l-158 -138h-193z" />
    <glyph glyph-name="Idieresis" unicode="&#xcf;" horiz-adv-x="649" 
d="M199 0v1434h252v-1434h-252zM403 1552v242h252v-242h-252zM-4 1552v242h252v-242h-252z" />
    <glyph glyph-name="Eth" unicode="&#xd0;" horiz-adv-x="1662" 
d="M246 0v608h-154v226h154v600h534q166 0 309 -55t242 -150.5t155 -228t56 -283.5q0 -150 -56 -282t-155 -228t-242 -151.5t-309 -55.5h-534zM496 229h284q224 0 361 136t137 352q0 213 -137.5 350t-360.5 137h-284v-370h360v-226h-360v-379z" />
    <glyph glyph-name="Ntilde" unicode="&#xd1;" horiz-adv-x="1617" 
d="M184 0v1434h234l768 -992v992h248v-1434h-211l-791 1020v-1020h-248zM559 1532l-137 41q36 132 87.5 194t141.5 62q61 0 162 -41t133 -41q42 0 65 22.5t48 79.5l137 -43q-36 -130 -87.5 -192t-141.5 -62q-61 0 -162 41t-133 41q-42 0 -65 -22.5t-48 -79.5z" />
    <glyph glyph-name="Ograve" unicode="&#xd2;" horiz-adv-x="1740" 
d="M868 -25q-215 0 -387 100.5t-266 269.5t-94 372q0 150 56 285.5t154 236t239 160t302 59.5q162 0 302 -58.5t237.5 -158.5t153 -236t55.5 -288q0 -150 -56 -286t-154 -236.5t-239.5 -160t-302.5 -59.5zM872 207q139 0 250.5 68.5t172.5 184.5t61 257q0 139 -62 255.5
t-174.5 185.5t-251.5 69t-250.5 -68.5t-172 -184.5t-60.5 -257q0 -139 61.5 -255.5t174 -185.5t251.5 -69zM766 1552l-250 236l225 100l217 -336h-192z" />
    <glyph glyph-name="Oacute" unicode="&#xd3;" horiz-adv-x="1740" 
d="M868 -25q-215 0 -387 100.5t-266 269.5t-94 372q0 150 56 285.5t154 236t239 160t302 59.5q162 0 302 -58.5t237.5 -158.5t153 -236t55.5 -288q0 -150 -56 -286t-154 -236.5t-239.5 -160t-302.5 -59.5zM872 207q139 0 250.5 68.5t172.5 184.5t61 257q0 139 -62 255.5
t-174.5 185.5t-251.5 69t-250.5 -68.5t-172 -184.5t-60.5 -257q0 -139 61.5 -255.5t174 -185.5t251.5 -69zM782 1552l217 336l226 -100l-250 -236h-193z" />
    <glyph glyph-name="Ocircumflex" unicode="&#xd4;" horiz-adv-x="1740" 
d="M868 -25q-215 0 -387 100.5t-266 269.5t-94 372q0 150 56 285.5t154 236t239 160t302 59.5q162 0 302 -58.5t237.5 -158.5t153 -236t55.5 -288q0 -150 -56 -286t-154 -236.5t-239.5 -160t-302.5 -59.5zM872 207q139 0 250.5 68.5t172.5 184.5t61 257q0 139 -62 255.5
t-174.5 185.5t-251.5 69t-250.5 -68.5t-172 -184.5t-60.5 -257q0 -139 61.5 -255.5t174 -185.5t251.5 -69zM518 1552l238 299h229l238 -299h-197l-158 138l-157 -138h-193z" />
    <glyph glyph-name="Otilde" unicode="&#xd5;" horiz-adv-x="1740" 
d="M868 -25q-215 0 -387 100.5t-266 269.5t-94 372q0 150 56 285.5t154 236t239 160t302 59.5q162 0 302 -58.5t237.5 -158.5t153 -236t55.5 -288q0 -150 -56 -286t-154 -236.5t-239.5 -160t-302.5 -59.5zM872 207q139 0 250.5 68.5t172.5 184.5t61 257q0 139 -62 255.5
t-174.5 185.5t-251.5 69t-250.5 -68.5t-172 -184.5t-60.5 -257q0 -139 61.5 -255.5t174 -185.5t251.5 -69zM621 1532l-138 41q36 131 88 193.5t142 62.5q61 0 162 -41t133 -41q42 0 64.5 22.5t47.5 79.5l137 -43q-36 -130 -87.5 -192t-141.5 -62q-61 0 -162 41t-133 41
q-42 0 -64.5 -22.5t-47.5 -79.5z" />
    <glyph glyph-name="Odieresis" unicode="&#xd6;" horiz-adv-x="1740" 
d="M868 -25q-215 0 -387 100.5t-266 269.5t-94 372q0 150 56 285.5t154 236t239 160t302 59.5q162 0 302 -58.5t237.5 -158.5t153 -236t55.5 -288q0 -150 -56 -286t-154 -236.5t-239.5 -160t-302.5 -59.5zM872 207q139 0 250.5 68.5t172.5 184.5t61 257q0 139 -62 255.5
t-174.5 185.5t-251.5 69t-250.5 -68.5t-172 -184.5t-60.5 -257q0 -139 61.5 -255.5t174 -185.5t251.5 -69zM948 1552v242h252v-242h-252zM541 1552v242h252v-242h-252z" />
    <glyph glyph-name="multiply" unicode="&#xd7;" horiz-adv-x="1310" 
d="M297 186l-162 160l357 359l-357 356l162 162l356 -359l357 359l161 -162l-358 -356l358 -359l-161 -160l-357 357z" />
    <glyph glyph-name="Oslash" unicode="&#xd8;" horiz-adv-x="1740" 
d="M868 -25q-232 0 -417 123l-99 -108h-248l203 227q-90 99 -138 227.5t-48 272.5q0 150 56 285.5t154 236t239 160t302 59.5q234 0 418 -123l99 109h247l-202 -230q90 -97 138 -225t48 -272q0 -150 -56 -286t-154 -236.5t-239.5 -160t-302.5 -59.5zM475 412l655 737
q-116 82 -262 82q-140 0 -252 -69t-173.5 -186t-61.5 -259q0 -172 94 -305zM872 203q211 0 349.5 149t138.5 365q0 172 -94 305l-656 -737q116 -82 262 -82z" />
    <glyph glyph-name="Ugrave" unicode="&#xd9;" horiz-adv-x="1550" 
d="M772 -23q-285 0 -447.5 162t-162.5 469v826h252v-816q0 -197 95.5 -303t266.5 -106q170 0 265.5 102t95.5 297v826h252v-813q0 -314 -164.5 -479t-452.5 -165zM698 1542l-249 236l225 100l217 -336h-193z" />
    <glyph glyph-name="Uacute" unicode="&#xda;" horiz-adv-x="1550" 
d="M772 -23q-285 0 -447.5 162t-162.5 469v826h252v-816q0 -197 95.5 -303t266.5 -106q170 0 265.5 102t95.5 297v826h252v-813q0 -314 -164.5 -479t-452.5 -165zM659 1542l218 336l225 -100l-250 -236h-193z" />
    <glyph glyph-name="Ucircumflex" unicode="&#xdb;" horiz-adv-x="1550" 
d="M772 -23q-285 0 -447.5 162t-162.5 469v826h252v-816q0 -197 95.5 -303t266.5 -106q170 0 265.5 102t95.5 297v826h252v-813q0 -314 -164.5 -479t-452.5 -165zM424 1550l238 299h229l237 -299h-196l-158 138l-158 -138h-192z" />
    <glyph glyph-name="Udieresis" unicode="&#xdc;" horiz-adv-x="1550" 
d="M772 -23q-285 0 -447.5 162t-162.5 469v826h252v-816q0 -197 95.5 -303t266.5 -106q170 0 265.5 102t95.5 297v826h252v-813q0 -314 -164.5 -479t-452.5 -165zM854 1550v242h252v-242h-252zM446 1550v242h252v-242h-252z" />
    <glyph glyph-name="Yacute" unicode="&#xdd;" horiz-adv-x="1466" 
d="M606 0v565l-569 869h297l401 -635l406 635h289l-570 -863v-571h-254zM637 1542l217 336l225 -100l-250 -236h-192z" />
    <glyph glyph-name="Thorn" unicode="&#xde;" horiz-adv-x="1378" 
d="M184 0v1434h252v-226h314q250 0 397 -131t147 -350q0 -157 -78.5 -269.5t-206 -166t-288.5 -53.5h-285v-238h-252zM436 463h293q141 0 225 72.5t84 189.5q0 124 -82.5 190t-226.5 66h-293v-518z" />
    <glyph glyph-name="germandbls" unicode="&#xdf;" horiz-adv-x="1269" 
d="M606 -4v190q151 5 233.5 62.5t82.5 163.5q0 96 -85.5 155.5t-230.5 77.5v168q232 112 232 289q0 89 -56.5 142.5t-150.5 53.5q-102 0 -166 -71.5t-64 -190.5v-1036h-245v1028q0 222 131 351.5t356 129.5q204 0 322 -110t118 -279q0 -127 -61 -210t-164 -140
q64 -21 116.5 -51t98 -74t71 -106.5t25.5 -137.5q0 -191 -142 -298t-388 -107h-33z" />
    <glyph glyph-name="agrave" unicode="&#xe0;" horiz-adv-x="1202" 
d="M1063 0h-246v133q-131 -156 -350 -156q-105 0 -191 37.5t-140 115.5t-54 185q0 174 120.5 264.5t317.5 90.5q159 0 299 -45v20q0 113 -68.5 172.5t-197.5 59.5q-146 0 -309 -68l-68 199q100 45 194.5 67.5t217.5 22.5q236 0 355.5 -118.5t119.5 -338.5v-641zM823 391v62
q-108 43 -248 43q-117 0 -182 -45t-65 -127q0 -74 59 -117t150 -43q124 0 205 63.5t81 163.5zM526 1219l-250 235l226 100l217 -335h-193z" />
    <glyph glyph-name="aacute" unicode="&#xe1;" horiz-adv-x="1202" 
d="M1063 0h-246v133q-131 -156 -350 -156q-105 0 -191 37.5t-140 115.5t-54 185q0 174 120.5 264.5t317.5 90.5q159 0 299 -45v20q0 113 -68.5 172.5t-197.5 59.5q-146 0 -309 -68l-68 199q100 45 194.5 67.5t217.5 22.5q236 0 355.5 -118.5t119.5 -338.5v-641zM823 391v62
q-108 43 -248 43q-117 0 -182 -45t-65 -127q0 -74 59 -117t150 -43q124 0 205 63.5t81 163.5zM481 1219l217 335l226 -100l-250 -235h-193z" />
    <glyph glyph-name="acircumflex" unicode="&#xe2;" horiz-adv-x="1202" 
d="M1063 0h-246v133q-131 -156 -350 -156q-105 0 -191 37.5t-140 115.5t-54 185q0 174 120.5 264.5t317.5 90.5q159 0 299 -45v20q0 113 -68.5 172.5t-197.5 59.5q-146 0 -309 -68l-68 199q100 45 194.5 67.5t217.5 22.5q236 0 355.5 -118.5t119.5 -338.5v-641zM823 391v62
q-108 43 -248 43q-117 0 -182 -45t-65 -127q0 -74 59 -117t150 -43q124 0 205 63.5t81 163.5zM248 1219l237 299h230l237 -299h-196l-158 137l-158 -137h-192z" />
    <glyph glyph-name="atilde" unicode="&#xe3;" horiz-adv-x="1202" 
d="M1063 0h-246v133q-131 -156 -350 -156q-105 0 -191 37.5t-140 115.5t-54 185q0 174 120.5 264.5t317.5 90.5q159 0 299 -45v20q0 113 -68.5 172.5t-197.5 59.5q-146 0 -309 -68l-68 199q100 45 194.5 67.5t217.5 22.5q236 0 355.5 -118.5t119.5 -338.5v-641zM823 391v62
q-108 43 -248 43q-117 0 -182 -45t-65 -127q0 -74 59 -117t150 -43q124 0 205 63.5t81 163.5zM352 1198l-137 41q36 132 87.5 194t141.5 62q61 0 162 -41t133 -41q42 0 65 23t48 80l137 -43q-36 -130 -87.5 -192t-141.5 -62q-61 0 -162 40.5t-133 40.5q-42 0 -65 -22.5
t-48 -79.5z" />
    <glyph glyph-name="adieresis" unicode="&#xe4;" horiz-adv-x="1202" 
d="M1063 0h-246v133q-131 -156 -350 -156q-105 0 -191 37.5t-140 115.5t-54 185q0 174 120.5 264.5t317.5 90.5q159 0 299 -45v20q0 113 -68.5 172.5t-197.5 59.5q-146 0 -309 -68l-68 199q100 45 194.5 67.5t217.5 22.5q236 0 355.5 -118.5t119.5 -338.5v-641zM823 391v62
q-108 43 -248 43q-117 0 -182 -45t-65 -127q0 -74 59 -117t150 -43q124 0 205 63.5t81 163.5zM678 1219v241h252v-241h-252zM270 1219v241h252v-241h-252z" />
    <glyph glyph-name="aring" unicode="&#xe5;" horiz-adv-x="1202" 
d="M1063 0h-246v133q-131 -156 -350 -156q-105 0 -191 37.5t-140 115.5t-54 185q0 174 120.5 264.5t317.5 90.5q159 0 299 -45v20q0 113 -68.5 172.5t-197.5 59.5q-146 0 -309 -68l-68 199q100 45 194.5 67.5t217.5 22.5q236 0 355.5 -118.5t119.5 -338.5v-641zM823 391v62
q-108 43 -248 43q-117 0 -182 -45t-65 -127q0 -74 59 -117t150 -43q124 0 205 63.5t81 163.5zM600 1214q-93 0 -163 67.5t-70 160.5q0 90 70 156.5t163 66.5t163.5 -67t70.5 -160q0 -90 -70.5 -157t-163.5 -67zM600 1313q53 0 90 37.5t37 91.5q0 51 -37.5 88t-89.5 37
q-53 0 -90 -37.5t-37 -91.5q0 -51 37.5 -88t89.5 -37z" />
    <glyph glyph-name="ae" unicode="&#xe6;" horiz-adv-x="1949" 
d="M492 -23q-115 0 -206.5 37.5t-147.5 115.5t-56 185q0 173 119.5 264t314.5 91q157 0 297 -45v20q0 232 -264 232q-142 0 -305 -68l-68 199q100 45 194 67.5t214 22.5q133 0 231.5 -46t147.5 -132q66 87 163.5 135.5t214.5 48.5q123 0 222 -47t161.5 -127.5t95.5 -185
t33 -222.5q0 -44 -2 -69h-794q21 -130 105 -202.5t204 -72.5q89 0 158.5 31.5t136.5 97.5l145 -129q-172 -203 -444 -203q-125 0 -234.5 49t-183.5 136q-221 -183 -452 -183zM1053 616h557q-13 126 -84.5 205.5t-190.5 79.5q-114 0 -189 -78.5t-93 -206.5zM532 164
q172 0 320 139q-31 81 -39 156q-101 37 -242 37q-114 0 -178.5 -45.5t-64.5 -126.5q0 -74 57.5 -117t146.5 -43z" />
    <glyph glyph-name="ccedilla" unicode="&#xe7;" horiz-adv-x="1169" 
d="M565 -338l-217 90l164 242q-185 46 -300.5 196.5t-115.5 348.5q0 152 72 281.5t201.5 206.5t287.5 77q145 0 248.5 -48t184.5 -138l-154 -166q-63 66 -128 100.5t-153 34.5q-134 0 -222.5 -101t-88.5 -247q0 -147 91.5 -248t232.5 -101q82 0 149 35t131 101l150 -148
q-84 -91 -177 -142.5t-223 -58.5z" />
    <glyph glyph-name="egrave" unicode="&#xe8;" horiz-adv-x="1236" 
d="M651 -25q-156 0 -282 70t-199.5 200t-73.5 296q0 154 67 282.5t189 204.5t273 76q101 0 186 -30.5t145.5 -84.5t103 -127.5t63 -159.5t20.5 -180q0 -45 -4 -69h-795q20 -130 104.5 -202.5t206.5 -72.5q88 0 157 31.5t136 97.5l146 -129q-168 -203 -443 -203zM342 616h555
q-13 126 -84.5 205.5t-189.5 79.5q-112 0 -187.5 -78.5t-93.5 -206.5zM535 1219l-250 235l225 100l217 -335h-192z" />
    <glyph glyph-name="eacute" unicode="&#xe9;" horiz-adv-x="1236" 
d="M651 -25q-156 0 -282 70t-199.5 200t-73.5 296q0 154 67 282.5t189 204.5t273 76q101 0 186 -30.5t145.5 -84.5t103 -127.5t63 -159.5t20.5 -180q0 -45 -4 -69h-795q20 -130 104.5 -202.5t206.5 -72.5q88 0 157 31.5t136 97.5l146 -129q-168 -203 -443 -203zM342 616h555
q-13 126 -84.5 205.5t-189.5 79.5q-112 0 -187.5 -78.5t-93.5 -206.5zM510 1219l217 335l225 -100l-250 -235h-192z" />
    <glyph glyph-name="ecircumflex" unicode="&#xea;" horiz-adv-x="1236" 
d="M651 -25q-156 0 -282 70t-199.5 200t-73.5 296q0 154 67 282.5t189 204.5t273 76q101 0 186 -30.5t145.5 -84.5t103 -127.5t63 -159.5t20.5 -180q0 -45 -4 -69h-795q20 -130 104.5 -202.5t206.5 -72.5q88 0 157 31.5t136 97.5l146 -129q-168 -203 -443 -203zM342 616h555
q-13 126 -84.5 205.5t-189.5 79.5q-112 0 -187.5 -78.5t-93.5 -206.5zM268 1219l238 299h229l238 -299h-197l-158 137l-157 -137h-193z" />
    <glyph glyph-name="edieresis" unicode="&#xeb;" horiz-adv-x="1236" 
d="M651 -25q-156 0 -282 70t-199.5 200t-73.5 296q0 154 67 282.5t189 204.5t273 76q101 0 186 -30.5t145.5 -84.5t103 -127.5t63 -159.5t20.5 -180q0 -45 -4 -69h-795q20 -130 104.5 -202.5t206.5 -72.5q88 0 157 31.5t136 97.5l146 -129q-168 -203 -443 -203zM342 616h555
q-13 126 -84.5 205.5t-189.5 79.5q-112 0 -187.5 -78.5t-93.5 -206.5zM698 1219v241h252v-241h-252zM291 1219v241h252v-241h-252z" />
    <glyph glyph-name="igrave" unicode="&#xec;" horiz-adv-x="585" 
d="M170 0v1081h248v-1081h-248zM207 1219l-250 235l225 100l217 -335h-192z" />
    <glyph glyph-name="iacute" unicode="&#xed;" horiz-adv-x="585" 
d="M170 0v1081h248v-1081h-248zM186 1219l217 335l226 -100l-250 -235h-193z" />
    <glyph glyph-name="icircumflex" unicode="&#xee;" horiz-adv-x="585" 
d="M170 0v1081h248v-1081h-248zM-59 1219l237 299h230l237 -299h-196l-158 137l-158 -137h-192z" />
    <glyph glyph-name="idieresis" unicode="&#xef;" horiz-adv-x="585" 
d="M170 0v1081h248v-1081h-248zM371 1219v241h252v-241h-252zM-37 1219v241h252v-241h-252z" />
    <glyph glyph-name="eth" unicode="&#xf0;" horiz-adv-x="1314" 
d="M647 -25q-156 0 -282.5 71.5t-197.5 194.5t-71 271q0 141 62.5 251.5t171 171t241.5 60.5q83 0 148.5 -20.5t136.5 -63.5l-215 293l-244 -108l-98 129l248 108l-119 162h285l49 -72l203 88l96 -129l-209 -90l182 -264q94 -135 137 -251t43 -251q0 -111 -39.5 -210.5
t-110.5 -175.5t-179.5 -120.5t-237.5 -44.5zM657 186q140 0 227 92.5t87 227.5q0 129 -91 218t-231 89q-139 0 -224 -87.5t-85 -223.5q0 -130 90 -223t227 -93z" />
    <glyph glyph-name="ntilde" unicode="&#xf1;" horiz-adv-x="1269" 
d="M156 0v1081h247v-168q131 191 338 191q181 0 283 -112.5t102 -303.5v-688h-247v614q0 126 -61 195.5t-171 69.5q-109 0 -176.5 -72.5t-67.5 -196.5v-610h-247zM393 1198l-137 41q36 132 87.5 194t141.5 62q61 0 162 -41t133 -41q42 0 65 23t48 80l137 -43
q-36 -130 -87.5 -192t-141.5 -62q-61 0 -162 40.5t-133 40.5q-42 0 -65 -22.5t-48 -79.5z" />
    <glyph glyph-name="ograve" unicode="&#xf2;" horiz-adv-x="1345" 
d="M670 -25q-162 0 -294 76t-206 205t-74 283q0 153 74.5 282.5t208 206t295.5 76.5q163 0 295 -75.5t206 -205t74 -284.5q0 -114 -44 -217.5t-120 -180t-184 -121.5t-231 -45zM674 190q147 0 237 101t90 248q0 145 -93.5 246.5t-237.5 101.5q-146 0 -236 -100t-90 -248
q0 -144 94 -246.5t236 -102.5zM575 1219l-249 235l225 100l217 -335h-193z" />
    <glyph glyph-name="oacute" unicode="&#xf3;" horiz-adv-x="1345" 
d="M670 -25q-162 0 -294 76t-206 205t-74 283q0 153 74.5 282.5t208 206t295.5 76.5q163 0 295 -75.5t206 -205t74 -284.5q0 -114 -44 -217.5t-120 -180t-184 -121.5t-231 -45zM674 190q147 0 237 101t90 248q0 145 -93.5 246.5t-237.5 101.5q-146 0 -236 -100t-90 -248
q0 -144 94 -246.5t236 -102.5zM575 1219l218 335l225 -100l-250 -235h-193z" />
    <glyph glyph-name="ocircumflex" unicode="&#xf4;" horiz-adv-x="1345" 
d="M670 -25q-162 0 -294 76t-206 205t-74 283q0 153 74.5 282.5t208 206t295.5 76.5q163 0 295 -75.5t206 -205t74 -284.5q0 -114 -44 -217.5t-120 -180t-184 -121.5t-231 -45zM674 190q147 0 237 101t90 248q0 145 -93.5 246.5t-237.5 101.5q-146 0 -236 -100t-90 -248
q0 -144 94 -246.5t236 -102.5zM319 1219l238 299h229l238 -299h-197l-157 137l-158 -137h-193z" />
    <glyph glyph-name="otilde" unicode="&#xf5;" horiz-adv-x="1345" 
d="M670 -25q-162 0 -294 76t-206 205t-74 283q0 153 74.5 282.5t208 206t295.5 76.5q163 0 295 -75.5t206 -205t74 -284.5q0 -114 -44 -217.5t-120 -180t-184 -121.5t-231 -45zM674 190q147 0 237 101t90 248q0 145 -93.5 246.5t-237.5 101.5q-146 0 -236 -100t-90 -248
q0 -144 94 -246.5t236 -102.5zM422 1198l-137 41q36 132 87.5 194t141.5 62q61 0 162 -41t133 -41q42 0 65 23t48 80l137 -43q-36 -130 -88 -192t-142 -62q-61 0 -161.5 40.5t-132.5 40.5q-42 0 -65 -22.5t-48 -79.5z" />
    <glyph glyph-name="odieresis" unicode="&#xf6;" horiz-adv-x="1345" 
d="M670 -25q-162 0 -294 76t-206 205t-74 283q0 153 74.5 282.5t208 206t295.5 76.5q163 0 295 -75.5t206 -205t74 -284.5q0 -114 -44 -217.5t-120 -180t-184 -121.5t-231 -45zM674 190q147 0 237 101t90 248q0 145 -93.5 246.5t-237.5 101.5q-146 0 -236 -100t-90 -248
q0 -144 94 -246.5t236 -102.5zM750 1219v241h251v-241h-251zM342 1219v241h252v-241h-252z" />
    <glyph glyph-name="divide" unicode="&#xf7;" horiz-adv-x="1310" 
d="M170 612v228h969v-228h-969zM524 1018v268h254v-268h-254zM524 164v268h254v-268h-254z" />
    <glyph glyph-name="oslash" unicode="&#xf8;" horiz-adv-x="1345" 
d="M670 -25q-169 0 -310 88l-69 -73h-225l163 182q-133 155 -133 367q0 153 74.5 282.5t208 206t295.5 76.5q171 0 309 -88l72 78h225q-105 -117 -166 -187q135 -151 135 -368q0 -114 -44 -217.5t-120 -180t-184 -121.5t-231 -45zM389 352l447 492q-74 49 -166 49
q-149 0 -240.5 -102t-91.5 -252q0 -105 51 -187zM674 186q150 0 242 102t92 251q0 99 -52 188l-448 -494q71 -47 166 -47z" />
    <glyph glyph-name="ugrave" unicode="&#xf9;" horiz-adv-x="1269" 
d="M528 -23q-181 0 -283 112.5t-102 303.5v688h248v-614q0 -126 61 -195t171 -69q109 0 176 72t67 196v610h248v-1081h-248v168q-131 -191 -338 -191zM563 1217l-250 235l226 100l217 -335h-193z" />
    <glyph glyph-name="uacute" unicode="&#xfa;" horiz-adv-x="1269" 
d="M528 -23q-181 0 -283 112.5t-102 303.5v688h248v-614q0 -126 61 -195t171 -69q109 0 176 72t67 196v610h248v-1081h-248v168q-131 -191 -338 -191zM510 1217l217 335l225 -100l-250 -235h-192z" />
    <glyph glyph-name="ucircumflex" unicode="&#xfb;" horiz-adv-x="1269" 
d="M528 -23q-181 0 -283 112.5t-102 303.5v688h248v-614q0 -126 61 -195t171 -69q109 0 176 72t67 196v610h248v-1081h-248v168q-131 -191 -338 -191zM283 1219l237 299h230l237 -299h-196l-158 137l-158 -137h-192z" />
    <glyph glyph-name="udieresis" unicode="&#xfc;" horiz-adv-x="1269" 
d="M528 -23q-181 0 -283 112.5t-102 303.5v688h248v-614q0 -126 61 -195t171 -69q109 0 176 72t67 196v610h248v-1081h-248v168q-131 -191 -338 -191zM713 1219v241h252v-241h-252zM305 1219v241h252v-241h-252z" />
    <glyph glyph-name="yacute" unicode="&#xfd;" horiz-adv-x="1220" 
d="M377 -334q-134 0 -256 66l84 184q74 -41 145 -41q53 0 88.5 28t65.5 97l-451 1081h264l308 -802l280 802h258l-430 -1112q-65 -166 -145.5 -234.5t-210.5 -68.5zM500 1217l217 335l225 -100l-250 -235h-192z" />
    <glyph glyph-name="thorn" unicode="&#xfe;" horiz-adv-x="1372" 
d="M156 -328v1823h247v-594q144 203 367 203q97 0 187 -38t161 -108t113.5 -179t42.5 -240q0 -130 -42.5 -238t-113 -178t-160.5 -108t-188 -38q-222 0 -367 191v-496h-247zM713 193q131 0 220 95.5t89 254.5q0 153 -90 249.5t-219 96.5q-130 0 -223 -98t-93 -252
q0 -152 93 -249t223 -97z" />
    <glyph glyph-name="ydieresis" unicode="&#xff;" horiz-adv-x="1220" 
d="M377 -334q-134 0 -256 66l84 184q74 -41 145 -41q53 0 88.5 28t65.5 97l-451 1081h264l308 -802l280 802h258l-430 -1112q-65 -166 -145.5 -234.5t-210.5 -68.5zM688 1219v241h252v-241h-252zM281 1219v241h251v-241h-251z" />
    <glyph glyph-name="dotlessi" unicode="&#x131;" horiz-adv-x="585" 
d="M170 0v1081h248v-1081h-248z" />
    <glyph glyph-name="Lslash" unicode="&#x141;" horiz-adv-x="1329" 
d="M246 0v569l-154 -45v234l154 47v629h250v-553l413 123v-234l-413 -125v-416h755v-229h-1005z" />
    <glyph glyph-name="lslash" unicode="&#x142;" horiz-adv-x="708" 
d="M231 0v608l-155 -47v236l155 47v651h246v-580l156 48v-236l-156 -47v-680h-246z" />
    <glyph glyph-name="OE" unicode="&#x152;" horiz-adv-x="2248" 
d="M883 0q-166 0 -309 55t-242 150.5t-155 228t-56 283.5q0 150 56 282t155 228t242 151.5t309 55.5h1241v-226h-766v-372h674v-226h-674v-385h776v-225h-1251zM883 229h223v975h-223q-224 0 -361 -136t-137 -351q0 -213 137.5 -350.5t360.5 -137.5z" />
    <glyph glyph-name="oe" unicode="&#x153;" horiz-adv-x="2129" 
d="M657 -25q-153 0 -282 75.5t-204 205.5t-75 283q0 114 44.5 218.5t120.5 180.5t182.5 121t224.5 45q135 0 248 -60t184 -163q69 104 178 163.5t240 59.5q124 0 224 -47t163 -127.5t96 -185t33 -222.5q0 -29 -4 -69h-795q21 -130 105.5 -202.5t205.5 -72.5q89 0 158.5 31.5
t136.5 97.5l146 -129q-172 -203 -443 -203q-140 0 -256.5 60.5t-189.5 167.5q-72 -105 -188 -166.5t-253 -61.5zM1233 616h557q-14 126 -85 205.5t-189 79.5q-114 0 -189.5 -78.5t-93.5 -206.5zM668 190q143 0 231 101t88 248q0 145 -92 246.5t-231 101.5
q-142 0 -231 -101.5t-89 -246.5q0 -144 92.5 -246.5t231.5 -102.5z" />
    <glyph glyph-name="Scaron" unicode="&#x160;" horiz-adv-x="1310" 
d="M686 -20q-342 0 -598 229l152 180q107 -93 215 -139.5t237 -46.5q117 0 185.5 49.5t68.5 134.5q0 54 -25 89.5t-95.5 68t-202.5 63.5q-124 29 -205 60.5t-146.5 80.5t-96 119.5t-30.5 169.5q0 184 137.5 300t352.5 116q297 0 520 -180l-135 -191q-199 148 -389 148
q-108 0 -171 -49t-63 -125q0 -57 28.5 -94t100.5 -68t211 -64q239 -58 350 -153.5t111 -269.5q0 -198 -141.5 -313t-370.5 -115zM541 1552l-238 299h197l157 -135l158 135h193l-238 -299h-229z" />
    <glyph glyph-name="scaron" unicode="&#x161;" 
d="M526 -20q-118 0 -238.5 41.5t-219.5 119.5l110 168q177 -133 354 -133q79 0 123.5 32t44.5 89q0 23 -11.5 41.5t-30 31.5t-47 25.5t-57.5 21.5t-66 20q-7 2 -11 3l-18 6q-58 17 -98 31.5t-89 42t-79 59t-51 81t-21 110.5q0 150 109.5 240t275.5 90q100 0 205 -32.5
t192 -90.5l-98 -176q-168 102 -305 102q-71 0 -111.5 -30.5t-40.5 -81.5q0 -18 7 -33.5t25.5 -29t33.5 -23t47.5 -22t50.5 -19t59 -19.5q3 -1 10.5 -3t10.5 -3q56 -17 96.5 -33t89 -43.5t78.5 -59t51 -79.5t21 -105q0 -164 -112.5 -251.5t-289.5 -87.5zM406 1219l-238 299
h197l157 -136l158 136h192l-237 -299h-229z" />
    <glyph glyph-name="Ydieresis" unicode="&#x178;" horiz-adv-x="1466" 
d="M606 0v565l-569 869h297l401 -635l406 635h289l-570 -863v-571h-254zM811 1550v242h252v-242h-252zM403 1550v242h252v-242h-252z" />
    <glyph glyph-name="Zcaron" unicode="&#x17d;" horiz-adv-x="1437" 
d="M133 0v186l846 1024h-819v224h1147v-187l-846 -1024h846v-223h-1174zM612 1552l-237 299h196l158 -135l158 135h192l-237 -299h-230z" />
    <glyph glyph-name="zcaron" unicode="&#x17e;" horiz-adv-x="1146" 
d="M106 0v170l625 709h-602v202h918v-170l-625 -708h625v-203h-941zM475 1219l-237 299h196l158 -136l158 136h192l-237 -299h-230z" />
    <glyph glyph-name="florin" unicode="&#x192;" horiz-adv-x="1079" 
d="M199 -10q-74 0 -115 10v203q36 -8 82 -8q65 0 100.5 33t48.5 106l72 395h-164v207h199l37 190q30 161 113.5 239.5t244.5 78.5q109 0 189 -25v-205q-86 21 -142 21q-72 0 -111.5 -38t-54.5 -122l-24 -139h260v-207h-297l-78 -432q-29 -162 -116 -234.5t-244 -72.5z" />
    <glyph glyph-name="circumflex" unicode="&#x2c6;" 
d="M160 1219l237 299h230l237 -299h-196l-158 137l-158 -137h-192z" />
    <glyph glyph-name="caron" unicode="&#x2c7;" 
d="M397 1219l-237 299h196l158 -136l158 136h192l-237 -299h-230z" />
    <glyph glyph-name="breve" unicode="&#x2d8;" 
d="M512 1214q-150 0 -245 80.5t-105 223.5h170q41 -129 180 -129t180 129h170q-10 -143 -105 -223.5t-245 -80.5z" />
    <glyph glyph-name="dotaccent" unicode="&#x2d9;" 
d="M383 1219v243h258v-243h-258z" />
    <glyph glyph-name="ring" unicode="&#x2da;" 
d="M512 1214q-93 0 -163 67.5t-70 160.5q0 90 70 156.5t163 66.5t163 -67t70 -160q0 -90 -70 -157t-163 -67zM512 1313q53 0 90 37.5t37 91.5q0 51 -37.5 88t-89.5 37q-53 0 -90 -37.5t-37 -91.5q0 -51 37.5 -88t89.5 -37z" />
    <glyph glyph-name="ogonek" unicode="&#x2db;" 
d="M750 -336q-187 -12 -288.5 47t-101.5 174q0 59 31 135h176q-12 -46 -12 -90q0 -70 46.5 -107.5t148.5 -43.5v-115z" />
    <glyph glyph-name="tilde" unicode="&#x2dc;" 
d="M262 1198l-137 41q36 132 87.5 194t141.5 62q61 0 162 -41t133 -41q42 0 65 23t48 80l137 -43q-36 -130 -87.5 -192t-141.5 -62q-61 0 -162 40.5t-133 40.5q-42 0 -65 -22.5t-48 -79.5z" />
    <glyph glyph-name="hungarumlaut" unicode="&#x2dd;" 
d="M487 1219l218 335l217 -100l-250 -235h-185zM115 1219l213 335l217 -100l-246 -235h-184z" />
    <glyph glyph-name="Omega" unicode="&#x3a9;" horiz-adv-x="1609" 
d="M139 0v205h373v98q-176 48 -274.5 196.5t-98.5 336.5q0 139 53.5 256t144.5 195.5t213 122.5t259 44q134 0 253.5 -44t209 -122.5t142 -195t52.5 -254.5q0 -123 -40.5 -231.5t-126 -191.5t-203.5 -112v-98h370v-205h-559v410q152 28 231 138.5t79 268.5
q0 181 -114.5 301.5t-295.5 120.5q-182 0 -298 -122.5t-116 -303.5q0 -156 79.5 -267.5t227.5 -135.5v-410h-561z" />
    <glyph glyph-name="pi" unicode="&#x3c0;" 
d="M0 0v1434h1024v-1434h-1024zM166 100h694l-348 523zM100 197l351 520l-351 520v-1040zM922 197v1040l-351 -520zM512 809l348 522h-694z" />
    <glyph glyph-name="afii10023" unicode="&#x401;" horiz-adv-x="1372" 
d="M793 1552v242h251v-242h-251zM385 1552v242h252v-242h-252zM184 0v1434h1063v-226h-811v-372h719v-226h-719v-385h821v-225h-1073z" />
    <glyph glyph-name="afii10051" unicode="&#x402;" horiz-adv-x="1789" 
d="M1155 -33q-108 0 -217 37l47 221q55 -18 119 -18q56 0 104 13.5t87.5 41.5t62 78t22.5 117q0 117 -74 180t-206 63q-212 0 -367 -139v-561h-252v1206h-403v228h1182v-228h-527v-401q193 137 422 137q217 0 351 -126.5t134 -352.5q0 -240 -133 -368t-352 -128z" />
    <glyph glyph-name="afii10052" unicode="&#x403;" horiz-adv-x="1216" 
d="M477 1552l217 336l226 -100l-250 -236h-193zM184 0v1434h965v-228h-715v-1206h-250z" />
    <glyph glyph-name="afii10053" unicode="&#x404;" horiz-adv-x="1507" 
d="M848 -25q-154 0 -289.5 58t-231 157t-151 236t-55.5 291q0 151 55 287t151 236t234 159t297 59q180 0 307 -58t242 -167l-143 -172q-192 170 -408 170q-176 0 -304 -113t-161 -289h643v-215h-645q30 -181 159 -297t308 -116q127 0 222 46t198 140l162 -166
q-116 -123 -255.5 -184.5t-334.5 -61.5z" />
    <glyph glyph-name="afii10054" unicode="&#x405;" horiz-adv-x="1310" 
d="M686 -20q-342 0 -598 229l152 180q107 -93 215 -139.5t237 -46.5q117 0 185.5 49.5t68.5 134.5q0 54 -25 89.5t-95.5 68t-202.5 63.5q-124 29 -205 60.5t-146.5 80.5t-96 119.5t-30.5 169.5q0 184 137.5 300t352.5 116q297 0 520 -180l-135 -191q-199 148 -389 148
q-108 0 -171 -49t-63 -125q0 -57 28.5 -94t100.5 -68t211 -64q239 -58 350 -153.5t111 -269.5q0 -198 -141.5 -313t-370.5 -115z" />
    <glyph glyph-name="afii10055" unicode="&#x406;" horiz-adv-x="649" 
d="M199 0v1434h252v-1434h-252z" />
    <glyph glyph-name="afii10056" unicode="&#x407;" horiz-adv-x="649" 
d="M403 1552v242h252v-242h-252zM-4 1552v242h252v-242h-252zM199 0v1434h252v-1434h-252z" />
    <glyph glyph-name="afii10057" unicode="&#x408;" horiz-adv-x="1144" 
d="M502 -20q-291 0 -459 231l166 170q67 -84 134.5 -126t154.5 -42q105 0 166 71.5t61 209.5v940h258v-947q0 -248 -133 -381q-126 -126 -348 -126z" />
    <glyph glyph-name="afii10058" unicode="&#x409;" horiz-adv-x="2318" 
d="M184 -16q-88 0 -174 22l25 207q36 -12 82 -12q35 0 61.5 7.5t57 31t53 65t44 113t35 170t21.5 241t8 322.5v283h975v-516h330q246 0 391 -118t145 -331q0 -217 -144.5 -343t-393.5 -126h-580v1206h-487v-129q0 -222 -13 -393t-40.5 -290.5t-64.5 -200t-89.5 -126
t-109.5 -64.5t-132 -19zM1372 225h324q141 0 217 63t76 183q0 110 -78 168.5t-221 58.5h-318v-473z" />
    <glyph glyph-name="afii10059" unicode="&#x40a;" horiz-adv-x="2316" 
d="M184 0v1434h250v-562h684v562h252v-562h359q233 0 370 -112.5t137 -315.5q0 -210 -138 -327t-382 -117h-598v657h-684v-657h-250zM1370 225h336q279 0 279 228q0 102 -72 155.5t-211 53.5h-332v-437z" />
    <glyph glyph-name="afii10060" unicode="&#x40b;" horiz-adv-x="1789" 
d="M483 0v1206h-405v228h1182v-228h-527v-409q197 137 422 137q217 0 351 -115t134 -325v-494h-249v401q0 136 -73.5 213.5t-207.5 77.5q-113 0 -203.5 -34t-173.5 -109v-549h-250z" />
    <glyph glyph-name="afii10061" unicode="&#x40c;" horiz-adv-x="1484" 
d="M627 1552l217 336l225 -100l-250 -236h-192zM184 0v1434h252v-721l682 721h309l-596 -617l623 -817h-305l-490 645l-223 -229v-416h-252z" />
    <glyph glyph-name="afii10062" unicode="&#x40e;" horiz-adv-x="1499" 
d="M778 1546q-130 0 -215.5 77t-107.5 210l153 29q41 -140 170 -140q126 0 170 140l152 -29q-20 -133 -106 -210t-216 -77zM432 -23q-146 0 -280 72l96 189q78 -45 176 -45q54 0 114.5 37t110.5 118l-598 1086h283l446 -834l394 834h272l-559 -1121q-88 -178 -199.5 -257
t-255.5 -79z" />
    <glyph glyph-name="afii10145" unicode="&#x40f;" horiz-adv-x="1538" 
d="M647 -307v307h-465v1434h250v-1207h670v1207h250v-1434h-461v-307h-244z" />
    <glyph glyph-name="afii10017" unicode="&#x410;" horiz-adv-x="1617" 
d="M61 0l631 1444h234l630 -1444h-266l-145 346h-678l-148 -346h-258zM559 569h494l-248 574z" />
    <glyph glyph-name="afii10018" unicode="&#x411;" horiz-adv-x="1454" 
d="M184 0v1434h1069v-228h-819v-329h400q239 0 379.5 -115t140.5 -320q0 -213 -142 -327.5t-391 -114.5h-637zM434 225h332q171 0 253.5 50.5t82.5 177.5q0 103 -75 157t-216 54h-377v-439z" />
    <glyph glyph-name="afii10019" unicode="&#x412;" horiz-adv-x="1478" 
d="M184 0v1434h643q248 0 375 -127q96 -96 96 -242q0 -214 -204 -320q137 -46 210.5 -128.5t73.5 -223.5q0 -189 -143 -291t-387 -102h-664zM432 829h344q126 0 198.5 50.5t72.5 148.5q0 85 -66 133.5t-186 48.5h-363v-381zM432 223h418q131 0 203.5 51.5t72.5 149.5
q0 92 -74 142t-221 50h-399v-393z" />
    <glyph glyph-name="afii10020" unicode="&#x413;" horiz-adv-x="1216" 
d="M184 0v1434h965v-228h-715v-1206h-250z" />
    <glyph glyph-name="afii10021" unicode="&#x414;" horiz-adv-x="1560" 
d="M20 -307v532h140q92 183 137 420t45 586v203h999v-1209h179l-35 -532h-209v307h-1010l-24 -307h-222zM428 225h662v981h-506v-164q0 -500 -156 -817z" />
    <glyph glyph-name="afii10022" unicode="&#x415;" horiz-adv-x="1372" 
d="M184 0v1434h1063v-226h-811v-372h719v-226h-719v-385h821v-225h-1073z" />
    <glyph glyph-name="afii10024" unicode="&#x416;" horiz-adv-x="2224" 
d="M1237 0h-250v381l-225 256l-428 -637h-303l565 823l-537 611h301l627 -746v746h250v-746l627 746h301l-539 -611l567 -823h-303l-428 637l-225 -256v-381z" />
    <glyph glyph-name="afii10025" unicode="&#x417;" horiz-adv-x="1323" 
d="M672 1458q222 0 363 -108.5t141 -276.5q0 -232 -244 -334q128 -39 204 -125t76 -219q0 -181 -145 -300.5t-381 -119.5q-203 0 -349.5 58t-270.5 178l137 174q199 -190 477 -190q118 0 199.5 58.5t81.5 156.5q0 105 -90 156.5t-238 51.5h-162v209h160q138 0 216.5 54.5
t78.5 154.5q0 90 -75 145.5t-196 55.5q-124 0 -220.5 -40t-180.5 -120l-135 164q111 106 242 161.5t311 55.5z" />
    <glyph glyph-name="afii10026" unicode="&#x418;" horiz-adv-x="1579" 
d="M184 0v1434h248v-1047l725 1047h236v-1434h-248v1044l-723 -1044h-238z" />
    <glyph glyph-name="afii10027" unicode="&#x419;" horiz-adv-x="1579" 
d="M797 1546q-130 0 -216 77t-108 210l154 29q41 -140 170 -140q126 0 170 140l151 -29q-20 -133 -105.5 -210t-215.5 -77zM184 0v1434h248v-1047l725 1047h236v-1434h-248v1044l-723 -1044h-238z" />
    <glyph glyph-name="afii10028" unicode="&#x41a;" horiz-adv-x="1484" 
d="M184 0v1434h252v-721l682 721h309l-596 -617l623 -817h-305l-490 645l-223 -229v-416h-252z" />
    <glyph glyph-name="afii10029" unicode="&#x41b;" horiz-adv-x="1566" 
d="M184 -16q-88 0 -174 22l25 207q36 -12 82 -12q35 0 61.5 7.5t57 31t53 65t44 113t35 170t21.5 241t8 322.5v283h983v-1434h-252v1206h-495v-129q0 -269 -20 -463t-55.5 -315.5t-93.5 -192t-123.5 -96.5t-156.5 -26z" />
    <glyph glyph-name="afii10030" unicode="&#x41c;" horiz-adv-x="1777" 
d="M184 0v1434h269l436 -678l436 678h268v-1434h-252v1028l-452 -676h-8l-449 672v-1024h-248z" />
    <glyph glyph-name="afii10031" unicode="&#x41d;" horiz-adv-x="1556" 
d="M184 0v1434h252v-596h684v596h252v-1434h-252v604h-684v-604h-252z" />
    <glyph glyph-name="afii10032" unicode="&#x41e;" horiz-adv-x="1740" 
d="M868 -25q-215 0 -387 100.5t-266 269.5t-94 372q0 150 56 285.5t154 236t239 160t302 59.5q162 0 302 -58.5t237.5 -158.5t153 -236t55.5 -288q0 -150 -56 -286t-154 -236.5t-239.5 -160t-302.5 -59.5zM872 207q139 0 250.5 68.5t172.5 184.5t61 257q0 139 -62 255.5
t-174.5 185.5t-251.5 69t-250.5 -68.5t-172 -184.5t-60.5 -257q0 -139 61.5 -255.5t174 -185.5t251.5 -69z" />
    <glyph glyph-name="afii10033" unicode="&#x41f;" horiz-adv-x="1538" 
d="M184 0v1434h1170v-1434h-252v1206h-666v-1206h-252z" />
    <glyph glyph-name="afii10034" unicode="&#x420;" horiz-adv-x="1368" 
d="M184 0v1434h566q250 0 397 -131.5t147 -352.5q0 -156 -78.5 -268.5t-206 -166.5t-288.5 -54h-285v-461h-252zM436 688h293q141 0 225 71.5t84 188.5q0 124 -82.5 190t-226.5 66h-293v-516z" />
    <glyph glyph-name="afii10035" unicode="&#x421;" horiz-adv-x="1511" 
d="M850 -25q-205 0 -372.5 98t-262 268t-94.5 376q0 152 55 288t151 236t235 158.5t298 58.5q185 0 316.5 -57.5t244.5 -165.5l-161 -186q-94 86 -190 132t-212 46q-134 0 -243 -68t-169.5 -184.5t-60.5 -257.5q0 -213 135 -361.5t338 -148.5q124 0 217.5 46t194.5 140
l162 -164q-80 -83 -158.5 -136t-186 -85.5t-237.5 -32.5z" />
    <glyph glyph-name="afii10036" unicode="&#x422;" horiz-adv-x="1327" 
d="M537 0v1200h-455v234h1163v-234h-454v-1200h-254z" />
    <glyph glyph-name="afii10037" unicode="&#x423;" horiz-adv-x="1499" 
d="M432 -23q-146 0 -280 72l96 189q78 -45 176 -45q54 0 114.5 37t110.5 118l-598 1086h283l446 -834l394 834h272l-559 -1121q-88 -178 -199.5 -257t-255.5 -79z" />
    <glyph glyph-name="afii10038" unicode="&#x424;" horiz-adv-x="1878" 
d="M813 -55v155q-332 0 -524.5 174.5t-192.5 454.5q0 278 192.5 449.5t524.5 171.5v135h250v-135q332 0 524.5 -172t192.5 -451t-192 -453t-525 -174v-155h-250zM813 324v800q-213 0 -336 -106t-123 -293q0 -189 122.5 -295t336.5 -106zM1063 324q215 0 337 105.5t122 295.5
q0 187 -122.5 293t-336.5 106v-800z" />
    <glyph glyph-name="afii10039" unicode="&#x425;" horiz-adv-x="1492" 
d="M76 0l522 729l-502 705h297l357 -514l358 514h289l-500 -701l520 -733h-297l-377 543l-378 -543h-289z" />
    <glyph glyph-name="afii10040" unicode="&#x426;" horiz-adv-x="1576" 
d="M1292 -307v307h-1108v1434h252v-1207h672v1207h250v-1207h178l-35 -534h-209z" />
    <glyph glyph-name="afii10041" unicode="&#x427;" horiz-adv-x="1462" 
d="M1026 0v567q-233 -121 -408 -121q-218 0 -345.5 116t-127.5 341v531h252v-467q0 -137 67.5 -212t199.5 -75q94 0 192.5 32.5t169.5 80.5v641h252v-1434h-252z" />
    <glyph glyph-name="afii10042" unicode="&#x428;" horiz-adv-x="2246" 
d="M184 0v1434h250v-1209h563v1209h252v-1209h563v1209h250v-1434h-1878z" />
    <glyph glyph-name="afii10043" unicode="&#x429;" horiz-adv-x="2281" 
d="M1999 -307v307h-1815v1434h252v-1207h563v1207h250v-1207h563v1207h252v-1207h177l-35 -534h-207z" />
    <glyph glyph-name="afii10044" unicode="&#x42a;" horiz-adv-x="1628" 
d="M430 0v1206h-358v228h608v-516h330q246 0 392 -118t146 -331q0 -217 -145.5 -343t-394.5 -126h-578zM680 225h324q141 0 217.5 63t76.5 183q0 110 -78 168.5t-223 58.5h-317v-473z" />
    <glyph glyph-name="afii10045" unicode="&#x42b;" horiz-adv-x="1906" 
d="M184 0v1434h250v-516h330q246 0 392.5 -118t146.5 -331q0 -217 -146 -343t-395 -126h-578zM434 225h324q141 0 218 63t77 183q0 110 -78 168.5t-221 58.5h-320v-473zM1473 0v1434h249v-1434h-249z" />
    <glyph glyph-name="afii10046" unicode="&#x42c;" horiz-adv-x="1382" 
d="M184 0v1434h250v-516h330q246 0 392.5 -118t146.5 -331q0 -217 -146 -343t-395 -126h-578zM434 225h324q141 0 218 63t77 183q0 110 -78 168.5t-221 58.5h-320v-473z" />
    <glyph glyph-name="afii10047" unicode="&#x42d;" horiz-adv-x="1503" 
d="M655 -25q-195 0 -334 61.5t-255 184.5l161 166q103 -94 198 -140t222 -46q181 0 309 116t158 297h-643v215h641q-33 176 -161 289t-304 113q-118 0 -216 -44t-191 -126l-144 172q115 108 242.5 166.5t306.5 58.5q159 0 297 -59t234 -159t151 -236t55 -287
q0 -154 -55.5 -291t-151 -236t-231 -157t-289.5 -58z" />
    <glyph glyph-name="afii10048" unicode="&#x42e;" horiz-adv-x="2166" 
d="M1354 -25q-183 0 -331.5 83t-238 226t-112.5 324h-236v-608h-252v1434h252v-600h238q24 177 115 318t240 223.5t329 82.5q200 0 358 -98.5t244 -267t86 -375.5q0 -205 -86.5 -374t-245.5 -268.5t-360 -99.5zM1358 203q189 0 309.5 147t120.5 367q0 142 -55 259
t-154.5 185t-224.5 68t-223 -67t-151.5 -183.5t-53.5 -261.5q0 -218 122 -366t310 -148z" />
    <glyph glyph-name="afii10049" unicode="&#x42f;" horiz-adv-x="1478" 
d="M74 0l391 539q-157 43 -249.5 154.5t-92.5 283.5q0 210 143 333.5t391 123.5h637v-1434h-250v496h-317l-356 -496h-297zM674 715h370v491h-366q-142 0 -221.5 -64.5t-79.5 -180.5q0 -112 81 -179t216 -67z" />
    <glyph glyph-name="afii10065" unicode="&#x430;" horiz-adv-x="1202" 
d="M1063 0h-246v133q-131 -156 -350 -156q-105 0 -191 37.5t-140 115.5t-54 185q0 174 120.5 264.5t317.5 90.5q159 0 299 -45v20q0 113 -68.5 172.5t-197.5 59.5q-146 0 -309 -68l-68 199q100 45 194.5 67.5t217.5 22.5q236 0 355.5 -118.5t119.5 -338.5v-641zM823 391v62
q-108 43 -248 43q-117 0 -182 -45t-65 -127q0 -74 59 -117t150 -43q124 0 205 63.5t81 163.5z" />
    <glyph glyph-name="afii10066" unicode="&#x431;" horiz-adv-x="1339" 
d="M684 190q137 0 224 95.5t87 236.5q0 139 -90.5 236.5t-224.5 97.5q-135 0 -222 -96.5t-87 -237.5q0 -139 90 -235.5t223 -96.5zM680 -25q-263 0 -410 166t-147 465q0 81 3 144t14 137.5t29.5 131.5t51 116t77 101t110 75.5t147.5 50.5l590 123l41 -199l-590 -129
q-147 -32 -211 -110t-74 -197q22 38 57.5 72t86 64.5t121 48.5t151.5 18q103 0 198 -41t165 -111t111.5 -168t41.5 -207q0 -149 -72 -275t-202 -201t-289 -75z" />
    <glyph glyph-name="afii10067" unicode="&#x432;" horiz-adv-x="1208" 
d="M156 0v1081h555q162 0 259 -73t97 -197q0 -170 -174 -248q223 -63 223 -270q0 -136 -107 -214.5t-292 -78.5h-561zM399 197h281q89 0 136.5 37.5t47.5 101.5q0 61 -49.5 96t-146.5 35h-269v-270zM399 635h254q76 0 119 36.5t43 96.5q0 56 -39 89.5t-119 33.5h-258v-256z
" />
    <glyph glyph-name="afii10068" unicode="&#x433;" horiz-adv-x="962" 
d="M156 0v1081h766v-213h-519v-868h-247z" />
    <glyph glyph-name="afii10069" unicode="&#x434;" horiz-adv-x="1310" 
d="M31 -260v473h116q121 242 121 735v133h838v-868h154l-33 -473h-207v260h-758l-24 -260h-207zM401 213h457v655h-356v-143q0 -299 -101 -512z" />
    <glyph glyph-name="afii10070" unicode="&#x435;" horiz-adv-x="1236" 
d="M651 -25q-156 0 -282 70t-199.5 200t-73.5 296q0 154 67 282.5t189 204.5t273 76q101 0 186 -30.5t145.5 -84.5t103 -127.5t63 -159.5t20.5 -180q0 -45 -4 -69h-795q20 -130 104.5 -202.5t206.5 -72.5q88 0 157 31.5t136 97.5l146 -129q-168 -203 -443 -203zM342 616h555
q-13 126 -84.5 205.5t-189.5 79.5q-112 0 -187.5 -78.5t-93.5 -206.5z" />
    <glyph glyph-name="afii10072" unicode="&#x436;" horiz-adv-x="1792" 
d="M18 0l424 627l-407 454h289l448 -530v530h248v-530l450 530h289l-407 -454l422 -627h-279l-309 461l-166 -189v-272h-248v272l-166 189l-309 -461h-279z" />
    <glyph glyph-name="afii10073" unicode="&#x437;" horiz-adv-x="1060" 
d="M524 -25q-280 0 -473 166l117 164q151 -129 340 -129q87 0 146 42t59 108q0 61 -57.5 98t-161.5 37h-134v178h134q87 0 138.5 39.5t51.5 101.5q0 55 -50.5 89t-127.5 34q-182 0 -307 -110l-111 155q180 156 440 156q178 0 291 -82t113 -209q0 -172 -170 -246
q196 -69 196 -262q0 -140 -120.5 -235t-313.5 -95z" />
    <glyph glyph-name="afii10074" unicode="&#x438;" horiz-adv-x="1298" 
d="M156 0v1081h241v-725q280 398 512 725h234v-1081h-240v721l-514 -721h-233z" />
    <glyph glyph-name="afii10075" unicode="&#x439;" horiz-adv-x="1298" 
d="M651 1206q-130 0 -215.5 77t-105.5 208l151 29q44 -140 170 -140t170 140l150 -29q-20 -132 -105.5 -208.5t-214.5 -76.5zM156 0v1081h241v-725q280 398 512 725h234v-1081h-240v721l-514 -721h-233z" />
    <glyph glyph-name="afii10076" unicode="&#x43a;" horiz-adv-x="1214" 
d="M156 0v1081h245v-518l471 518h291l-420 -454l455 -627h-293l-327 446l-177 -186v-260h-245z" />
    <glyph glyph-name="afii10077" unicode="&#x43b;" horiz-adv-x="1275" 
d="M147 -12q-59 0 -145 14l18 203q32 -8 72 -8q36 0 59.5 8.5t50 37t43 88t31 155t21 244.5t6.5 351h817v-1081h-248v868h-337q0 -166 -9.5 -295.5t-25.5 -222t-43 -158t-56.5 -105t-72 -62t-84 -30t-97.5 -7.5z" />
    <glyph glyph-name="afii10078" unicode="&#x43c;" horiz-adv-x="1480" 
d="M156 0v1081h245l338 -501l340 501h246v-1081h-250v721l-340 -485l-338 481v-717h-241z" />
    <glyph glyph-name="afii10079" unicode="&#x43d;" horiz-adv-x="1284" 
d="M156 0v1081h247v-438h478v438h247v-1081h-247v436h-478v-436h-247z" />
    <glyph glyph-name="afii10080" unicode="&#x43e;" horiz-adv-x="1345" 
d="M670 -25q-162 0 -294 76t-206 205t-74 283q0 153 74.5 282.5t208 206t295.5 76.5q163 0 295 -75.5t206 -205t74 -284.5q0 -114 -44 -217.5t-120 -180t-184 -121.5t-231 -45zM674 190q147 0 237 101t90 248q0 145 -93.5 246.5t-237.5 101.5q-146 0 -236 -100t-90 -248
q0 -144 94 -246.5t236 -102.5z" />
    <glyph glyph-name="afii10081" unicode="&#x43f;" horiz-adv-x="1275" 
d="M156 0v1081h964v-1081h-248v868h-469v-868h-247z" />
    <glyph glyph-name="afii10082" unicode="&#x440;" horiz-adv-x="1372" 
d="M156 -328v1409h247v-180q144 203 367 203q97 0 187 -38t161 -108t113.5 -179t42.5 -240q0 -130 -42.5 -238t-113 -178t-160.5 -108t-188 -38q-222 0 -367 191v-496h-247zM713 193q131 0 220 95.5t89 254.5q0 153 -90 249.5t-219 96.5q-130 0 -223 -98t-93 -252
q0 -152 93 -249t223 -97z" />
    <glyph glyph-name="afii10083" unicode="&#x441;" horiz-adv-x="1159" 
d="M655 -25q-158 0 -286.5 75.5t-200.5 204t-72 280.5v4q0 152 72 281.5t201.5 206.5t287.5 77q145 0 248.5 -48t184.5 -138l-154 -166q-63 66 -128 100.5t-153 34.5q-133 0 -222 -100.5t-89 -243.5v-4q0 -147 91.5 -248t232.5 -101q82 0 149 35t131 101l150 -148
q-88 -99 -191.5 -151t-251.5 -52z" />
    <glyph glyph-name="afii10084" unicode="&#x442;" horiz-adv-x="1026" 
d="M387 0v868h-348v213h946v-213h-348v-868h-250z" />
    <glyph glyph-name="afii10085" unicode="&#x443;" horiz-adv-x="1220" 
d="M377 -334q-134 0 -256 66l84 184q74 -41 145 -41q53 0 88.5 28t65.5 97l-451 1081h264l308 -802l280 802h258l-430 -1112q-65 -166 -145.5 -234.5t-210.5 -68.5z" />
    <glyph glyph-name="afii10086" unicode="&#x444;" horiz-adv-x="1820" 
d="M786 -328v406q-98 -94 -247 -94q-196 0 -317.5 148.5t-121.5 408.5q0 257 122 407t319 150q140 0 245 -109v445h248v-445q105 109 246 109q197 0 318.5 -150t121.5 -409t-121 -407t-317 -148q-150 0 -248 94v-406h-248zM612 190q92 0 174 72v549q-82 76 -174 76
q-126 0 -194 -94t-68 -256q0 -165 66 -256t196 -91zM1210 190q129 0 194.5 91.5t65.5 257.5q0 161 -67 254.5t-193 93.5q-86 0 -176 -76v-549q82 -72 176 -72z" />
    <glyph glyph-name="afii10087" unicode="&#x445;" horiz-adv-x="1187" 
d="M61 0l398 549l-383 532h270l250 -356l250 356h264l-383 -526l399 -555h-270l-266 379l-264 -379h-265z" />
    <glyph glyph-name="afii10088" unicode="&#x446;" horiz-adv-x="1320" 
d="M1030 -260v260h-874v1081h245v-868h467v868h246v-868h156l-33 -473h-207z" />
    <glyph glyph-name="afii10089" unicode="&#x447;" horiz-adv-x="1216" 
d="M813 0v403q-64 -33 -152 -57t-169 -24q-166 0 -267.5 89t-101.5 251v419h248v-360q0 -77 49 -133t129 -56q138 0 264 72v477h248v-1081h-248z" />
    <glyph glyph-name="afii10090" unicode="&#x448;" horiz-adv-x="1851" 
d="M156 0v1081h247v-868h400v868h246v-868h399v868h248v-1081h-1540z" />
    <glyph glyph-name="afii10091" unicode="&#x449;" horiz-adv-x="1900" 
d="M1612 -260v260h-1456v1081h247v-868h400v868h246v-868h399v868h248v-868h153l-30 -473h-207z" />
    <glyph glyph-name="afii10092" unicode="&#x44a;" horiz-adv-x="1320" 
d="M334 0v870h-299v211h545v-379h249q93 0 170.5 -20.5t136.5 -61.5t91.5 -107.5t32.5 -152.5q0 -167 -111 -263.5t-303 -96.5h-512zM580 201h235q94 0 144.5 40.5t50.5 118.5q0 72 -52 111t-147 39h-231v-309z" />
    <glyph glyph-name="afii10093" unicode="&#x44b;" horiz-adv-x="1628" 
d="M156 0v1081h247v-379h228q126 0 220.5 -35.5t152 -114t57.5 -192.5q0 -167 -110.5 -263.5t-301.5 -96.5h-493zM403 201h213q94 0 145.5 41t51.5 118q0 72 -52.5 111t-148.5 39h-209v-309zM1225 0v1081h248v-1081h-248z" />
    <glyph glyph-name="afii10094" unicode="&#x44c;" horiz-adv-x="1142" 
d="M156 0v1081h247v-379h248q126 0 220.5 -35.5t152 -114t57.5 -192.5q0 -167 -110 -263.5t-301 -96.5h-514zM403 201h234q94 0 145.5 41t51.5 118q0 72 -52.5 111t-148.5 39h-230v-309z" />
    <glyph glyph-name="afii10095" unicode="&#x44d;" horiz-adv-x="1159" 
d="M504 -25q-151 0 -257 51.5t-192 149.5l148 146q66 -68 135 -104t154 -36q121 0 208 76.5t111 194.5h-424v178h422q-22 113 -107 187.5t-200 74.5q-92 0 -161 -32t-132 -95l-133 154q174 182 428 182q159 0 288 -77t200 -206t71 -282t-72.5 -282t-201.5 -204.5t-285 -75.5
z" />
    <glyph glyph-name="afii10096" unicode="&#x44e;" horiz-adv-x="1755" 
d="M1116 -25q-212 0 -355 130t-173 333h-187v-438h-245v1081h245v-438h187q33 200 177 329.5t355 129.5q159 0 283 -76t190 -203.5t66 -283.5q0 -154 -66.5 -282t-191.5 -205t-285 -77zM1120 190q139 0 216 99.5t77 249.5q0 148 -81 248t-216 100q-139 0 -215 -98t-76 -250
q0 -148 80 -248.5t215 -100.5z" />
    <glyph glyph-name="afii10097" unicode="&#x44f;" horiz-adv-x="1228" 
d="M57 0l299 406q-115 35 -183.5 117.5t-68.5 205.5q0 160 112.5 256t313.5 96h543v-1081h-248v365h-221l-256 -365h-291zM565 551h260v330h-262q-98 0 -154.5 -44t-56.5 -120q0 -77 58.5 -121.5t154.5 -44.5z" />
    <glyph glyph-name="afii10071" unicode="&#x451;" horiz-adv-x="1236" 
d="M694 1219v241h252v-241h-252zM287 1219v241h252v-241h-252zM651 -25q-156 0 -282 70t-199.5 200t-73.5 296q0 154 67 282.5t189 204.5t273 76q101 0 186 -30.5t145.5 -84.5t103 -127.5t63 -159.5t20.5 -180q0 -45 -4 -69h-795q20 -130 104.5 -202.5t206.5 -72.5
q88 0 157 31.5t136 97.5l146 -129q-168 -203 -443 -203zM342 616h555q-13 126 -84.5 205.5t-189.5 79.5q-112 0 -187.5 -78.5t-93.5 -206.5z" />
    <glyph glyph-name="afii10099" unicode="&#x452;" horiz-adv-x="1269" 
d="M731 -18q-52 0 -98 7t-62 11.5t-55 17.5l43 195q39 -16 88 -16q104 0 170 72.5t66 195.5v92q0 126 -61.5 195t-172.5 69q-110 0 -179 -73t-69 -197v-551h-247v1145h-148v180h148v170h247v-170h369v-180h-369v-291q63 89 143.5 141t196.5 52q182 0 285.5 -113t103.5 -303
v-236q0 -190 -108.5 -301.5t-290.5 -111.5z" />
    <glyph glyph-name="afii10100" unicode="&#x453;" horiz-adv-x="962" 
d="M369 1219l217 335l225 -100l-250 -235h-192zM156 0v1081h766v-213h-519v-868h-247z" />
    <glyph glyph-name="afii10101" unicode="&#x454;" horiz-adv-x="1175" 
d="M655 -25q-156 0 -285 75.5t-201.5 204.5t-72.5 282t71 282t200 206t288 77q254 0 428 -182l-133 -154q-63 63 -132 95t-161 32q-115 0 -200 -74.5t-109 -187.5h424v-178h-426q25 -118 113 -194.5t209 -76.5q85 0 153.5 36t134.5 104l148 -146q-86 -98 -192 -149.5
t-257 -51.5z" />
    <glyph glyph-name="afii10102" unicode="&#x455;" 
d="M526 -20q-118 0 -238.5 41.5t-219.5 119.5l110 168q177 -133 354 -133q79 0 123.5 32t44.5 89q0 23 -11.5 41.5t-30 31.5t-47 25.5t-57.5 21.5t-66 20q-7 2 -11 3l-18 6q-58 17 -98 31.5t-89 42t-79 59t-51 81t-21 110.5q0 150 109.5 240t275.5 90q100 0 205 -32.5
t192 -90.5l-98 -176q-168 102 -305 102q-71 0 -111.5 -30.5t-40.5 -81.5q0 -18 7 -33.5t25.5 -29t33.5 -23t47.5 -22t50.5 -19t59 -19.5q3 -1 10.5 -3t10.5 -3q56 -17 96.5 -33t89 -43.5t78.5 -59t51 -79.5t21 -105q0 -164 -112.5 -251.5t-289.5 -87.5z" />
    <glyph glyph-name="afii10103" unicode="&#x456;" horiz-adv-x="585" 
d="M160 1247v236h266v-236h-266zM170 0v1081h248v-1081h-248z" />
    <glyph glyph-name="afii10104" unicode="&#x457;" horiz-adv-x="585" 
d="M373 1219v241h252v-241h-252zM-35 1219v241h252v-241h-252zM170 0v1081h248v-1081h-248z" />
    <glyph glyph-name="afii10105" unicode="&#x458;" horiz-adv-x="585" 
d="M160 1247v236h266v-236h-266zM102 -334q-53 0 -118 10v199q37 -6 69 -6q117 0 117 131v1081h248v-1095q0 -320 -316 -320z" />
    <glyph glyph-name="afii10106" unicode="&#x459;" horiz-adv-x="1859" 
d="M147 -12q-68 0 -145 14l18 203q32 -8 72 -8q36 0 60.5 9.5t51 39.5t43 90t30 156t20 243t6.5 346h817v-379h248q126 0 220.5 -35.5t152 -114t57.5 -192.5q0 -167 -110.5 -263.5t-301.5 -96.5h-514v868h-337q0 -166 -9.5 -295.5t-25.5 -222t-43 -158t-57 -105t-72.5 -62
t-83.5 -30t-97 -7.5zM1120 201h234q94 0 145 40.5t51 118.5q0 72 -52.5 111t-147.5 39h-230v-309z" />
    <glyph glyph-name="afii10107" unicode="&#x45a;" horiz-adv-x="1865" 
d="M154 0v1081h247v-391h478v391h247v-391h250q125 0 219 -34.5t151.5 -112.5t57.5 -193q0 -165 -109.5 -257.5t-301.5 -92.5h-514v496h-478v-496h-247zM1126 201h236q194 0 194 151q0 70 -51.5 108t-146.5 38h-232v-297z" />
    <glyph glyph-name="afii10108" unicode="&#x45b;" horiz-adv-x="1269" 
d="M154 0v1145h-148v180h148v170h247v-170h369v-180h-369v-289q131 191 338 191q181 0 284 -112.5t103 -303.5v-631h-247v557q0 126 -61 195t-171 69t-178 -72t-68 -196v-553h-247z" />
    <glyph glyph-name="afii10109" unicode="&#x45c;" horiz-adv-x="1214" 
d="M494 1219l217 335l225 -100l-250 -235h-192zM156 0v1081h245v-518l471 518h291l-420 -454l455 -627h-293l-327 446l-177 -186v-260h-245z" />
    <glyph glyph-name="afii10110" unicode="&#x45e;" horiz-adv-x="1220" 
d="M623 1206q-130 0 -216 77t-106 208l152 29q44 -140 170 -140t170 140l149 -29q-20 -132 -105 -208.5t-214 -76.5zM377 -334q-134 0 -256 66l84 184q74 -41 145 -41q53 0 88.5 28t65.5 97l-451 1081h264l308 -802l280 802h258l-430 -1112q-65 -166 -145.5 -234.5
t-210.5 -68.5z" />
    <glyph glyph-name="afii10193" unicode="&#x45f;" horiz-adv-x="1275" 
d="M524 -260v260h-368v1081h245v-868h473v868h246v-1081h-360v-260h-236z" />
    <glyph glyph-name="afii10050" unicode="&#x490;" horiz-adv-x="1216" 
d="M184 0v1434h719v307h211l35 -535h-715v-1206h-250z" />
    <glyph glyph-name="afii10098" unicode="&#x491;" horiz-adv-x="962" 
d="M156 0v1081h528v260h207l31 -473h-519v-868h-247z" />
    <glyph glyph-name="endash" unicode="&#x2013;" horiz-adv-x="1081" 
d="M115 510v235h852v-235h-852z" />
    <glyph glyph-name="emdash" unicode="&#x2014;" horiz-adv-x="1839" 
d="M115 510v235h1609v-235h-1609z" />
    <glyph glyph-name="quoteleft" unicode="&#x2018;" horiz-adv-x="550" 
d="M129 864v240q0 167 78 247.5t237 92.5l27 -107q-176 -30 -176 -168q0 -4 1 -11t1 -11h104v-283h-272z" />
    <glyph glyph-name="quoteright" unicode="&#x2019;" horiz-adv-x="550" 
d="M106 854l-26 107q176 30 176 169q0 4 -1 11.5t-1 11.5h-104v281h272v-240q0 -166 -78.5 -247t-237.5 -93z" />
    <glyph glyph-name="quotesinglbase" unicode="&#x201a;" horiz-adv-x="550" 
d="M96 -297l-26 104q189 38 174 193h-105v281h273v-238q0 -166 -78.5 -247t-237.5 -93z" />
    <glyph glyph-name="quotedblleft" unicode="&#x201c;" horiz-adv-x="1026" 
d="M604 864v240q0 166 78.5 247t237.5 93l26 -107q-176 -30 -176 -172v-18h107v-283h-273zM129 864v240q0 167 78 247.5t237 92.5l27 -107q-176 -30 -176 -168q0 -4 1 -11t1 -11h104v-283h-272z" />
    <glyph glyph-name="quotedblright" unicode="&#x201d;" horiz-adv-x="1026" 
d="M582 854l-27 107q176 30 176 169q0 4 -1 11.5t-1 11.5h-104v281h272v-240q0 -167 -78 -247.5t-237 -92.5zM106 854l-26 107q176 30 176 169q0 4 -1 11.5t-1 11.5h-104v281h272v-240q0 -166 -78.5 -247t-237.5 -93z" />
    <glyph glyph-name="quotedblbase" unicode="&#x201e;" horiz-adv-x="1026" 
d="M571 -297l-26 104q176 35 176 170q0 4 -1 11.5t-1 11.5h-105v281h273v-238q0 -166 -78.5 -247t-237.5 -93zM96 -297l-26 104q176 35 176 170q0 4 -1 11.5t-1 11.5h-105v281h273v-238q0 -166 -78.5 -247t-237.5 -93z" />
    <glyph glyph-name="dagger" unicode="&#x2020;" horiz-adv-x="839" 
d="M346 487l19 564l-250 -19v146l247 -19l-24 275h164l-25 -275l248 19v-146l-250 19l19 -564h-148z" />
    <glyph glyph-name="daggerdbl" unicode="&#x2021;" horiz-adv-x="880" 
d="M358 0l25 274l-248 -18v145l248 -18l-16 334l16 334l-248 -19v146l248 -19l-25 275h164l-24 -275l247 19v-146l-247 19l16 -334l-16 -334l247 18v-145l-247 18l24 -274h-164z" />
    <glyph glyph-name="bullet" unicode="&#x2022;" horiz-adv-x="1005" 
d="M502 432q-119 0 -204 84.5t-85 206.5q0 119 85.5 203t203.5 84q120 0 205.5 -84.5t85.5 -206.5q0 -120 -85.5 -203.5t-205.5 -83.5z" />
    <glyph glyph-name="ellipsis" unicode="&#x2026;" horiz-adv-x="1622" 
d="M1217 0v274h266v-274h-266zM678 0v274h266v-274h-266zM139 0v274h267v-274h-267z" />
    <glyph glyph-name="perthousand" unicode="&#x2030;" horiz-adv-x="2514" 
d="M434 717q-148 0 -242 106t-94 260q0 153 95.5 260t244.5 107q148 0 242 -106.5t94 -260.5q0 -153 -95.5 -259.5t-244.5 -106.5zM244 0l1048 1434h203l-1049 -1434h-202zM2077 -16q-149 0 -242.5 106t-93.5 260q0 153 95 260t245 107q148 0 242 -106.5t94 -260.5
q0 -153 -95.5 -259.5t-244.5 -106.5zM1300 -16q-148 0 -241.5 106t-93.5 260q0 153 95.5 260t244.5 107q148 0 241.5 -106.5t93.5 -260.5q0 -153 -95.5 -259.5t-244.5 -106.5zM438 874q70 0 112 60t42 149q0 87 -45 148t-113 61q-70 0 -111.5 -60t-41.5 -149t44.5 -149
t112.5 -60zM2081 141q70 0 111.5 60t41.5 149q0 88 -44.5 148.5t-112.5 60.5q-70 0 -112 -60t-42 -149t45 -149t113 -60zM1305 141q70 0 111.5 60t41.5 149q0 87 -45 148t-113 61q-70 0 -111.5 -60t-41.5 -149t45 -149t113 -60z" />
    <glyph glyph-name="guilsinglleft" unicode="&#x2039;" horiz-adv-x="724" 
d="M430 84l-340 448v17l340 450l188 -96l-270 -360l270 -363z" />
    <glyph glyph-name="guilsinglright" unicode="&#x203a;" horiz-adv-x="724" 
d="M297 84l-188 94l270 361l-270 362l188 98l338 -450v-17z" />
    <glyph glyph-name="fraction" unicode="&#x2044;" horiz-adv-x="940" 
d="M-143 -201l956 1753h225l-956 -1753h-225z" />
    <glyph glyph-name="Euro" unicode="&#x20ac;" horiz-adv-x="1474" 
d="M889 -25q-223 0 -379.5 132t-216.5 354h-187v174h158q-2 27 -2 82q0 63 4 92h-160v174h193q63 214 217 344.5t365 130.5q91 0 167 -19.5t136 -57.5t106 -84t90 -109l-190 -141q-70 96 -141.5 141t-174.5 45q-107 0 -189.5 -66.5t-125.5 -183.5h440v-174h-479
q-4 -54 -4 -92q0 -28 4 -82h479v-174h-442q42 -122 129 -191t205 -69q66 0 121.5 24t98 63.5t93.5 106.5l180 -131q-63 -91 -129 -151.5t-160 -99t-206 -38.5z" />
    <glyph glyph-name="afii61352" unicode="&#x2116;" horiz-adv-x="2152" 
d="M160 0v1434h239l643 -983v983h256v-1434h-219l-663 1008v-1008h-256zM1470 287v155h535v-155h-535zM1739 563q-129 0 -214 87t-85 214t86 215t215 88q128 0 213.5 -87t85.5 -214t-86.5 -215t-214.5 -88zM1741 700q63 0 102 47.5t39 116.5t-40.5 116.5t-102.5 47.5
q-65 0 -104.5 -47t-39.5 -117q0 -68 41.5 -116t104.5 -48z" />
    <glyph glyph-name="published" unicode="&#x2117;" horiz-adv-x="1699" 
d="M848 -25q-204 0 -374.5 100t-267.5 270.5t-97 371.5q0 149 58 285.5t157 236.5t237 159.5t291 59.5t290.5 -59t235.5 -158.5t155.5 -236t57.5 -287.5q0 -149 -58 -285.5t-157 -237t-237 -160t-291 -59.5zM848 49q186 0 339 90t239.5 244.5t86.5 337.5q0 181 -86 333
t-238 241t-337 89q-186 0 -339.5 -90t-240 -244t-86.5 -337q0 -181 86 -333.5t238.5 -241.5t337.5 -89zM586 342v778h313q138 0 219.5 -71.5t81.5 -194.5q0 -127 -90.5 -196.5t-226.5 -69.5h-146v-246h-151zM737 721h150q73 0 116.5 36.5t43.5 98.5t-42.5 95.5t-117.5 33.5
h-150v-264z" />
    <glyph glyph-name="trademark" unicode="&#x2122;" horiz-adv-x="1413" 
d="M698 803v631h129l191 -299l190 299h125v-631h-116v448l-195 -303h-12l-195 303v-448h-117zM248 803v520h-195v111h510v-111h-194v-520h-121z" />
    <glyph glyph-name="partialdiff" unicode="&#x2202;" 
d="M0 0v1434h1024v-1434h-1024zM166 100h694l-348 523zM100 197l351 520l-351 520v-1040zM922 197v1040l-351 -520zM512 809l348 522h-694z" />
    <glyph glyph-name="Delta" unicode="&#x2206;" horiz-adv-x="1351" 
d="M57 0l611 1436h235l613 -1436h-1459zM422 223h731l-365 893z" />
    <glyph glyph-name="product" unicode="&#x220f;" 
d="M0 0v1434h1024v-1434h-1024zM166 100h694l-348 523zM100 197l351 520l-351 520v-1040zM922 197v1040l-351 -520zM512 809l348 522h-694z" />
    <glyph glyph-name="summation" unicode="&#x2211;" 
d="M0 0v1434h1024v-1434h-1024zM166 100h694l-348 523zM100 197l351 520l-351 520v-1040zM922 197v1040l-351 -520zM512 809l348 522h-694z" />
    <glyph glyph-name="minus" unicode="&#x2212;" horiz-adv-x="1310" 
d="M174 606v230h961v-230h-961z" />
    <glyph glyph-name="radical" unicode="&#x221a;" horiz-adv-x="1153" 
d="M518 -319l-364 720l-174 -14l-15 164l289 31l264 -529l522 1571h191l-664 -1943h-49z" />
    <glyph glyph-name="infinity" unicode="&#x221e;" horiz-adv-x="1675" 
d="M446 346q-163 0 -260.5 107t-97.5 272q0 162 95.5 268.5t256.5 106.5q64 0 120.5 -19t107 -57.5t86.5 -75t84 -92.5q47 53 68 75.5t65 62.5t77.5 58t82.5 33t102 15q161 0 257.5 -106t96.5 -269q0 -165 -95 -272t-259 -107q-78 0 -154 35.5t-128.5 81.5t-112.5 115
q-41 -45 -67 -71t-67.5 -61t-76.5 -53.5t-83 -32.5t-98 -14zM446 551q124 0 269 170q-161 176 -273 176q-71 0 -114 -51t-43 -123q0 -76 43 -124t118 -48zM1235 551q73 0 115.5 49.5t42.5 122.5q0 75 -44.5 124.5t-119.5 49.5q-123 0 -268 -176q32 -36 57.5 -60.5t62 -52.5
t75.5 -42.5t79 -14.5z" />
    <glyph glyph-name="integral" unicode="&#x222b;" 
d="M0 0v1434h1024v-1434h-1024zM166 100h694l-348 523zM100 197l351 520l-351 520v-1040zM922 197v1040l-351 -520zM512 809l348 522h-694z" />
    <glyph glyph-name="approxequal" unicode="&#x2248;" horiz-adv-x="1310" 
d="M268 770l-133 29q27 140 95.5 223.5t185.5 83.5q73 0 248.5 -54.5t222.5 -54.5q119 0 157 121l136 -28q-27 -139 -96.5 -222.5t-186.5 -83.5q-73 0 -250.5 54.5t-222.5 54.5q-55 0 -97 -33.5t-59 -89.5zM268 315l-133 29q27 139 95.5 222t185.5 83q74 0 249.5 -53
t221.5 -53q120 0 157 121l136 -31q-27 -137 -96.5 -220t-186.5 -83q-73 0 -250.5 53t-222.5 53q-55 0 -97 -32.5t-59 -88.5z" />
    <glyph glyph-name="notequal" unicode="&#x2260;" horiz-adv-x="1310" 
d="M377 121l-166 26l125 207h-166v226h305l168 280h-473v225h610l140 234l165 -27l-124 -207h176v-225h-316l-168 -280h484v-226h-621z" />
    <glyph glyph-name="lessequal" unicode="&#x2264;" horiz-adv-x="1310" 
d="M156 18v215h1001v-215h-1001zM1157 309l-1001 361v233l1001 361v-242l-756 -236l756 -235v-242z" />
    <glyph glyph-name="greaterequal" unicode="&#x2265;" horiz-adv-x="1310" 
d="M156 18v215h1001v-215h-1001zM158 309v242l753 235l-753 236v242l999 -361v-233z" />
    <glyph glyph-name="lozenge" unicode="&#x25ca;" horiz-adv-x="1310" 
d="M547 -72l-373 801l373 801h211l377 -801l-377 -801h-211zM655 160l244 569q-147 336 -244 565l-245 -565z" />
    <glyph glyph-name="cyrBreve" unicode="&#xf6d1;" 
d="M510 1212q-130 0 -216 77t-108 210l154 29q40 -139 170 -139q126 0 170 139l151 -29q-20 -133 -105.5 -210t-215.5 -77z" />
    <glyph glyph-name="cyrbreve" unicode="&#xf6d4;" 
d="M510 1206q-130 0 -216 77t-106 208l152 29q44 -140 170 -140t170 140l149 -29q-20 -132 -105 -208.5t-214 -76.5z" />
    <glyph glyph-name="apple" unicode="&#xf8ff;" 
d="M0 0v1434h1024v-1434h-1024zM166 100h694l-348 523zM100 197l351 520l-351 520v-1040zM922 197v1040l-351 -520zM512 809l348 522h-694z" />
    <glyph glyph-name="ff" unicode="&#xfb00;" horiz-adv-x="1540" 
d="M981 0v868h-137v207h137v78q0 180 88 268q86 86 242 86q106 0 202 -28v-209q-80 26 -145 26q-143 0 -143 -163v-60h286v-205h-282v-868h-248zM211 0v868h-137v207h137v78q0 180 88 268q86 86 244 86q104 0 200 -28v-209q-80 26 -145 26q-143 0 -143 -163v-60h286v-205
h-282v-868h-248z" />
    <glyph glyph-name="uni00A0" horiz-adv-x="614" 
 />
    </font>
</defs>
</svg>
