<?xml version="1.0" standalone="no"?>
<!DOCTYPE svg PUBLIC "-//W3C//DTD SVG 1.1//EN" "http://www.w3.org/Graphics/SVG/1.1/DTD/svg11.dtd" >
<svg xmlns="http://www.w3.org/2000/svg" xmlns:xlink="http://www.w3.org/1999/xlink" version="1.1">
<metadata>
Created by FontForge 20170731 at Tue Mar  2 19:22:38 2021
 By Aleksey,,,
Copyright (c) 2000 The Hoefler Type Foundry, Inc., dba Hoefler &#38; Frere-Jones. All Rights Reserved.
</metadata>
<defs>
<font id="GothamPro-Bold" horiz-adv-x="1024" >
  <font-face 
    font-family="Gotham Pro"
    font-weight="700"
    font-stretch="normal"
    units-per-em="2048"
    panose-1="2 0 8 3 3 0 0 2 0 4"
    ascent="1638"
    descent="-410"
    x-height="1098"
    cap-height="1434"
    bbox="-145 -354 2447 1909"
    underline-thickness="40"
    underline-position="-312"
    unicode-range="U+0020-FB04"
  />
<missing-glyph 
d="M0 0v1434h1024v-1434h-1024zM166 100h694l-348 523zM100 197l351 520l-351 520v-1040zM922 197v1040l-351 -520zM512 809l348 522h-694z" />
    <glyph glyph-name="fi" unicode="fi" horiz-adv-x="1400" 
d="M928 1219v276h327v-276h-327zM193 0v831h-130v256h130v70q0 178 88 266q86 86 251 86q127 0 222 -30v-258q-73 26 -142 26q-112 0 -112 -119v-43h252v-254h-248v-831h-311zM936 0v1098h311v-1098h-311z" />
    <glyph glyph-name="fl" unicode="fl" horiz-adv-x="1400" 
d="M193 0v831h-130v256h130v70q0 178 88 266q86 86 251 86q127 0 222 -30v-258q-73 26 -142 26q-112 0 -112 -119v-43h252v-254h-248v-831h-311zM936 0v1495h311v-1495h-311z" />
    <glyph glyph-name="ffi" unicode="ffi" horiz-adv-x="2183" 
d="M1710 1219v276h328v-276h-328zM975 0v831h-129v256h129v70q0 178 88 266q86 86 252 86q126 0 221 -30v-258q-73 26 -141 26q-113 0 -113 -119v-43h252v-254h-248v-831h-311zM193 0v831h-130v256h130v70q0 178 88 266q86 86 251 86q127 0 222 -30v-258q-73 26 -142 26
q-112 0 -112 -119v-43h252v-254h-248v-831h-311zM1718 0v1098h312v-1098h-312z" />
    <glyph glyph-name="ffl" unicode="ffl" horiz-adv-x="2183" 
d="M975 0v831h-129v256h129v70q0 178 88 266q86 86 252 86q126 0 221 -30v-258q-73 26 -141 26q-113 0 -113 -119v-43h252v-254h-248v-831h-311zM193 0v831h-130v256h130v70q0 178 88 266q86 86 251 86q127 0 222 -30v-258q-73 26 -142 26q-112 0 -112 -119v-43h252v-254
h-248v-831h-311zM1718 0v1495h312v-1495h-312z" />
    <glyph glyph-name=".notdef" 
d="M0 0v1434h1024v-1434h-1024zM166 100h694l-348 523zM100 197l351 520l-351 520v-1040zM922 197v1040l-351 -520zM512 809l348 522h-694z" />
    <glyph glyph-name=".null" horiz-adv-x="0" 
 />
    <glyph glyph-name="nonmarkingreturn" horiz-adv-x="682" 
 />
    <glyph glyph-name="space" unicode=" " horiz-adv-x="614" 
 />
    <glyph glyph-name="exclam" unicode="!" horiz-adv-x="663" 
d="M246 487l-96 906v41h364v-41l-96 -906h-172zM166 0v328h332v-328h-332z" />
    <glyph glyph-name="quotedbl" unicode="&#x22;" horiz-adv-x="1064" 
d="M600 780l37 654h344v-11l-223 -643h-158zM117 780l37 654h344v-11l-224 -643h-157z" />
    <glyph glyph-name="numbersign" unicode="#" horiz-adv-x="1433" 
d="M174 0l53 307h-155v262h200l52 303h-181v263h226l51 299h270l-51 -299h297l51 299h270l-51 -299h156v-263h-201l-51 -303h180v-262h-225l-53 -307h-271l54 307h-297l-54 -307h-270zM543 569h297l51 303h-297z" />
    <glyph glyph-name="dollar" unicode="$" horiz-adv-x="1323" 
d="M573 -201v207q-272 36 -483 195l160 233q176 -133 334 -166v326q-115 31 -194 68t-136.5 88.5t-84 120.5t-26.5 161q0 168 117 274.5t313 127.5v118h213v-122q205 -28 381 -152l-137 -240q-132 88 -254 121v-309q235 -63 340 -167t105 -277q0 -168 -118.5 -275
t-316.5 -129v-203h-213zM584 901v277q-72 -9 -107 -43t-35 -88q0 -50 30.5 -83t111.5 -63zM776 258q146 21 146 135q0 53 -32 87.5t-114 64.5v-287z" />
    <glyph glyph-name="percent" unicode="%" horiz-adv-x="1761" 
d="M438 717q-153 0 -249.5 105t-96.5 261q0 155 98 261t252 106q153 0 249.5 -105.5t96.5 -261.5q0 -154 -98 -260t-252 -106zM236 0l1046 1434h244l-1047 -1434h-243zM1319 -16q-153 0 -249.5 105t-96.5 261q0 155 98 261t252 106q153 0 249.5 -105.5t96.5 -261.5
q0 -154 -98 -260t-252 -106zM442 903q62 0 96.5 52t34.5 128q0 75 -37.5 128t-97.5 53q-62 0 -96.5 -52t-34.5 -129q0 -74 37.5 -127t97.5 -53zM1323 170q62 0 96.5 52t34.5 128q0 74 -37.5 127t-97.5 53q-62 0 -96.5 -51.5t-34.5 -128.5q0 -74 37.5 -127t97.5 -53z" />
    <glyph glyph-name="ampersand" unicode="&#x26;" horiz-adv-x="1425" 
d="M1137 -29l-166 168q-194 -159 -420 -159q-210 0 -345.5 113.5t-135.5 303.5q0 267 278 394q-100 140 -100 290q0 74 29.5 142t83.5 120.5t137.5 83.5t183.5 31q180 0 291.5 -103.5t111.5 -260.5q0 -257 -301 -375l191 -191q68 107 139 246l232 -127q-105 -191 -189 -303
l211 -211zM621 885q98 37 144 81.5t46 112.5q0 61 -37 97t-98 36q-63 0 -101 -40.5t-38 -108.5q0 -46 19 -86t65 -92zM588 238q102 0 207 81l-275 279q-133 -69 -133 -192q0 -75 56.5 -121.5t144.5 -46.5z" />
    <glyph glyph-name="quotesingle" unicode="'" horiz-adv-x="585" 
d="M117 780l37 654h348v-11l-223 -643h-162z" />
    <glyph glyph-name="parenleft" unicode="(" horiz-adv-x="911" 
d="M688 -289q-286 155 -426.5 370t-140.5 507t140.5 506.5t426.5 369.5l137 -207q-210 -147 -302.5 -301t-92.5 -368t92.5 -368.5t302.5 -301.5z" />
    <glyph glyph-name="parenright" unicode=")" horiz-adv-x="911" 
d="M223 -289l-137 207q210 147 302.5 301.5t92.5 368.5t-92.5 368t-302.5 301l137 207q286 -155 427 -369.5t141 -506.5t-141 -507t-427 -370z" />
    <glyph glyph-name="asterisk" unicode="*" horiz-adv-x="880" 
d="M356 762l33 246l-199 -152l-86 148l230 96l-230 96l86 147l199 -151l-33 246h168l-32 -246l198 151l86 -147l-229 -96l229 -96l-86 -148l-198 152l32 -246h-168z" />
    <glyph glyph-name="plus" unicode="+" horiz-adv-x="1310" 
d="M510 211v369h-371v282h371v369h291v-369h370v-282h-370v-369h-291z" />
    <glyph glyph-name="comma" unicode="," horiz-adv-x="585" 
d="M80 -332l-27 129q201 21 201 180v23h-127v328h332v-277q0 -197 -95.5 -288.5t-283.5 -94.5z" />
    <glyph glyph-name="hyphen" unicode="-" horiz-adv-x="835" 
d="M102 485v299h631v-299h-631z" />
    <glyph glyph-name="period" unicode="." horiz-adv-x="585" 
d="M127 0v328h332v-328h-332z" />
    <glyph glyph-name="slash" unicode="/" horiz-adv-x="1085" 
d="M-57 -262l907 1896h264l-907 -1896h-264z" />
    <glyph glyph-name="zero" unicode="0" horiz-adv-x="1495" 
d="M745 -25q-188 0 -333.5 98t-223 266.5t-77.5 377.5q0 207 79.5 375.5t226 267t333.5 98.5q186 0 331.5 -97.5t224 -266t78.5 -377.5q0 -207 -79 -376t-226 -267.5t-334 -98.5zM750 260q141 0 226 128t85 329q0 197 -88 327t-228 130t-225.5 -128t-85.5 -329
q0 -199 87.5 -328t228.5 -129z" />
    <glyph glyph-name="one" unicode="1" horiz-adv-x="864" 
d="M365 0v1124l-250 -61l-66 258l412 123h215v-1444h-311z" />
    <glyph glyph-name="two" unicode="2" horiz-adv-x="1275" 
d="M100 0v250l478 391q140 116 193.5 187t53.5 157q0 89 -52.5 137.5t-139.5 48.5q-80 0 -144.5 -44.5t-148.5 -147.5l-221 178q113 155 232 226t302 71q224 0 359 -121.5t135 -324.5q0 -71 -16 -131.5t-42.5 -109.5t-77.5 -103.5t-103 -99.5t-138 -111l-233 -181h624v-272
h-1061z" />
    <glyph glyph-name="three" unicode="3" horiz-adv-x="1271" 
d="M637 -25q-349 0 -559 248l217 207q77 -87 159 -129.5t187 -42.5q91 0 147 48t56 130q0 87 -74 134.5t-207 47.5h-131l-49 201l342 344h-563v271h968v-238l-362 -346q79 -13 143.5 -40t121 -73t88.5 -121t32 -172q0 -206 -140.5 -337.5t-375.5 -131.5z" />
    <glyph glyph-name="four" unicode="4" horiz-adv-x="1411" 
d="M815 0v309h-700l-52 223l787 912h266v-879h193v-256h-193v-309h-301zM434 565h381v447z" />
    <glyph glyph-name="five" unicode="5" horiz-adv-x="1290" 
d="M625 -25q-312 0 -537 215l191 228q86 -77 168.5 -116.5t173.5 -39.5q112 0 175.5 53t63.5 150q0 91 -69.5 142.5t-184.5 51.5t-239 -53l-183 121l41 707h881v-277h-610l-17 -248q102 25 189 25q107 0 196 -27t158.5 -81t108 -144.5t38.5 -210.5q0 -227 -148 -361.5
t-396 -134.5z" />
    <glyph glyph-name="six" unicode="6" horiz-adv-x="1355" 
d="M694 -25q-259 0 -413 154q-83 83 -126.5 212t-43.5 335q0 134 24 251t74 215t123.5 168t177 109t229.5 39q139 0 243 -39t206 -119l-166 -243q-78 60 -142.5 87t-150.5 27q-128 0 -200.5 -90.5t-88.5 -240.5q67 43 134.5 67.5t162.5 24.5q145 0 257.5 -51t179.5 -157
t67 -253q0 -218 -156 -357t-391 -139zM682 246q115 0 180.5 59t65.5 156q0 92 -67.5 150.5t-182.5 58.5t-180.5 -58t-65.5 -153q0 -93 67.5 -153t182.5 -60z" />
    <glyph glyph-name="seven" unicode="7" horiz-adv-x="1267" 
d="M172 0l641 1161h-674v273h1032v-238l-643 -1196h-356z" />
    <glyph glyph-name="eight" unicode="8" horiz-adv-x="1290" 
d="M645 -20q-241 0 -397 114.5t-156 302.5q0 127 57.5 209.5t174.5 136.5q-89 55 -136 130t-47 188q0 167 140.5 280t363.5 113q224 0 364 -113t140 -284q0 -110 -46.5 -185t-135.5 -129q116 -61 173.5 -139.5t57.5 -202.5q0 -195 -154.5 -308t-398.5 -113zM645 848
q93 0 149 49.5t56 128.5q0 69 -56 118.5t-149 49.5q-94 0 -149.5 -49t-55.5 -121q0 -76 56.5 -126t148.5 -50zM645 240q115 0 181.5 51t66.5 131q0 82 -69 129t-179 47t-179 -48t-69 -132q0 -76 67 -127t181 -51z" />
    <glyph glyph-name="nine" unicode="9" horiz-adv-x="1355" 
d="M618 -25q-147 0 -259.5 44t-211.5 126l166 240q80 -65 152.5 -94t161.5 -29q128 0 201.5 88t89.5 238q-117 -99 -291 -99q-236 0 -374 124t-138 343q0 218 153 360t394 142q143 0 236.5 -36t176.5 -119q82 -82 126 -211.5t44 -333.5q0 -234 -70.5 -409t-213.5 -274.5
t-343 -99.5zM678 752q115 0 180.5 60t65.5 157t-68 158t-184 61q-115 0 -179.5 -60.5t-64.5 -160.5q0 -97 67 -156t183 -59z" />
    <glyph glyph-name="colon" unicode=":" horiz-adv-x="606" 
d="M137 770v328h332v-328h-332zM137 0v328h332v-328h-332z" />
    <glyph glyph-name="semicolon" unicode=";" horiz-adv-x="606" 
d="M137 770v328h332v-328h-332zM90 -332l-27 129q201 21 201 180v23h-127v328h332v-277q0 -197 -95.5 -288.5t-283.5 -94.5z" />
    <glyph glyph-name="less" unicode="&#x3c;" horiz-adv-x="1310" 
d="M1130 145l-991 435v282l991 434v-288l-692 -285l692 -285v-293z" />
    <glyph glyph-name="equal" unicode="=" horiz-adv-x="1310" 
d="M170 846v282h971v-282h-971zM170 313v283h971v-283h-971z" />
    <glyph glyph-name="greater" unicode="&#x3e;" horiz-adv-x="1310" 
d="M180 145v289l692 285l-692 285v292l991 -434v-282z" />
    <glyph glyph-name="question" unicode="?" horiz-adv-x="1114" 
d="M403 487l-47 332l11 10q188 7 273 55t85 136q0 69 -49.5 107t-138.5 38q-167 0 -308 -141l-188 207q201 221 502 221q226 0 360.5 -112.5t134.5 -315.5q0 -76 -21 -138.5t-56.5 -106t-88 -77.5t-110 -55t-127.5 -35l-23 -125h-209zM336 0v328h332v-328h-332z" />
    <glyph glyph-name="at" unicode="@" horiz-adv-x="2007" 
d="M1022 -332q-129 0 -249.5 32.5t-220.5 90.5t-183 140.5t-140 180.5t-88.5 213t-31.5 236q0 181 70 346t189.5 286t286 193t351.5 72q183 0 350 -68t285 -179.5t187.5 -259.5t69.5 -304q0 -125 -32 -224t-87.5 -161.5t-129 -95.5t-158.5 -33q-207 0 -313 123
q-137 -123 -304 -123q-161 0 -267.5 108t-106.5 287q0 141 64.5 260t169.5 186.5t224 67.5q181 0 283 -139l23 109l241 -39l-96 -551q-6 -30 -6 -64q0 -57 40 -93t109 -36q113 0 186.5 110.5t73.5 307.5q0 141 -62 273.5t-167.5 233t-257 161.5t-319.5 61
q-136 0 -261.5 -41.5t-224.5 -116.5t-172.5 -175.5t-113 -224.5t-39.5 -257q0 -167 62 -316.5t170 -258.5t262.5 -172.5t332.5 -63.5q147 0 264.5 33.5t237.5 103.5l41 -65q-253 -154 -543 -154zM946 344q98 0 171 85.5t73 209.5q0 87 -53.5 139.5t-137.5 52.5
q-101 0 -173 -83t-72 -205q0 -93 53 -146t139 -53z" />
    <glyph glyph-name="A" unicode="A" horiz-adv-x="1617" 
d="M49 0l615 1444h290l615 -1444h-330l-131 322h-606l-131 -322h-322zM614 600h381l-190 465z" />
    <glyph glyph-name="B" unicode="B" horiz-adv-x="1478" 
d="M172 0v1434h666q247 0 374 -127q99 -99 99 -248q0 -203 -189 -309q133 -50 201 -133t68 -224q0 -192 -144 -292.5t-393 -100.5h-682zM479 854h291q227 0 227 156q0 71 -53 109t-153 38h-312v-303zM479 276h375q223 0 223 160q0 74 -57.5 115t-175.5 41h-365v-316z" />
    <glyph glyph-name="C" unicode="C" horiz-adv-x="1511" 
d="M844 -25q-207 0 -376 98.5t-264 268t-95 375.5q0 203 94 372t266 269t387 100q187 0 314 -60t241 -173l-188 -217q-92 83 -173 121t-196 38q-119 0 -214.5 -60t-148.5 -163t-53 -227q0 -188 117.5 -319.5t298.5 -131.5q114 0 198 41t179 127l201 -215
q-116 -124 -252.5 -184t-335.5 -60z" />
    <glyph glyph-name="D" unicode="D" horiz-adv-x="1601" 
d="M172 0v1434h559q166 0 309 -55t242 -150.5t155 -228t56 -283.5q0 -150 -56 -282t-155 -228t-242 -151.5t-309 -55.5h-559zM487 285h244q193 0 312.5 119.5t119.5 312.5q0 191 -119.5 311.5t-312.5 120.5h-244v-864z" />
    <glyph glyph-name="E" unicode="E" horiz-adv-x="1372" 
d="M172 0v1434h1081v-281h-768v-291h676v-280h-676v-301h779v-281h-1092z" />
    <glyph glyph-name="F" unicode="F" horiz-adv-x="1343" 
d="M172 0v1434h1092v-287h-777v-305h684v-287h-684v-555h-315z" />
    <glyph glyph-name="G" unicode="G" horiz-adv-x="1605" 
d="M862 -25q-219 0 -391.5 96t-267 265t-94.5 381q0 151 57 287.5t155.5 236.5t239 158.5t299.5 58.5q186 0 315 -48t248 -148l-198 -240q-91 75 -174.5 110t-200.5 35q-171 0 -291.5 -132t-120.5 -318q0 -197 122 -326t312 -129q176 0 297 86v205h-317v272h623v-622
q-268 -228 -613 -228z" />
    <glyph glyph-name="H" unicode="H" horiz-adv-x="1556" 
d="M172 0v1434h315v-568h582v568h315v-1434h-315v575h-582v-575h-315z" />
    <glyph glyph-name="I" unicode="I" horiz-adv-x="688" 
d="M186 0v1434h316v-1434h-316z" />
    <glyph glyph-name="J" unicode="J" horiz-adv-x="1155" 
d="M498 -20q-289 0 -469 215l198 221q65 -72 127.5 -108t134.5 -36q92 0 142.5 58.5t50.5 179.5v924h324v-938q0 -247 -136 -383q-133 -133 -372 -133z" />
    <glyph glyph-name="K" unicode="K" horiz-adv-x="1495" 
d="M172 0v1434h315v-627l582 627h381l-584 -609l611 -825h-379l-445 610l-166 -172v-438h-315z" />
    <glyph glyph-name="L" unicode="L" horiz-adv-x="1267" 
d="M172 0v1434h315v-1147h715v-287h-1030z" />
    <glyph glyph-name="M" unicode="M" horiz-adv-x="1777" 
d="M172 0v1434h340l377 -607l377 607h340v-1434h-314v936l-403 -612h-8l-400 606v-930h-309z" />
    <glyph glyph-name="N" unicode="N" horiz-adv-x="1617" 
d="M172 0v1434h291l672 -883v883h311v-1434h-268l-695 911v-911h-311z" />
    <glyph glyph-name="O" unicode="O" horiz-adv-x="1740" 
d="M868 -25q-162 0 -304.5 58.5t-241.5 158t-156 236t-57 289.5q0 151 57.5 287.5t157.5 236.5t243 158.5t305 58.5q217 0 391.5 -99t271.5 -268.5t97 -373.5q0 -151 -58 -287.5t-158 -236.5t-243 -159t-305 -59zM872 266q188 0 309.5 130.5t121.5 320.5q0 187 -123.5 318.5
t-311.5 131.5t-309 -130t-121 -320q0 -122 55 -225t155 -164.5t224 -61.5z" />
    <glyph glyph-name="P" unicode="P" horiz-adv-x="1368" 
d="M172 0v1434h586q254 0 401.5 -137.5t147.5 -362.5q0 -121 -45 -218t-124.5 -159t-184 -94.5t-226.5 -32.5h-240v-430h-315zM487 711h250q116 0 183 61.5t67 159.5q0 104 -68 160.5t-188 56.5h-244v-438z" />
    <glyph glyph-name="Q" unicode="Q" horiz-adv-x="1740" 
d="M1452 -43l-158 141q-191 -123 -426 -123q-162 0 -304.5 58.5t-241.5 158t-156 236t-57 289.5q0 151 57.5 287.5t157.5 236.5t243 158.5t305 58.5q217 0 391.5 -99t271.5 -268.5t97 -373.5q0 -228 -127 -412l148 -125zM872 266q103 0 189 39l-234 199l201 225l236 -213
q39 85 39 201q0 187 -123.5 318.5t-311.5 131.5t-309 -130t-121 -320q0 -122 55 -225t155 -164.5t224 -61.5z" />
    <glyph glyph-name="R" unicode="R" horiz-adv-x="1480" 
d="M172 0v1434h655q272 0 418 -146q123 -123 123 -332q0 -167 -82 -279t-225 -165l350 -512h-369l-311 459h-244v-459h-315zM487 737h320q114 0 178 56t64 151q0 100 -65.5 152.5t-182.5 52.5h-314v-412z" />
    <glyph glyph-name="S" unicode="S" horiz-adv-x="1310" 
d="M682 -20q-166 0 -324 58t-284 171l186 223q212 -174 428 -174q97 0 152 36.5t55 102.5q0 42 -22 70t-84.5 55.5t-182.5 57.5q-68 17 -117.5 32.5t-102.5 37t-89 44.5t-69.5 55.5t-53.5 71.5t-31.5 89.5t-11.5 111.5q0 194 140.5 313t361.5 119q306 0 532 -182l-164 -238
q-205 142 -372 142q-88 0 -136.5 -36t-48.5 -93q0 -69 60 -105t250 -84q115 -30 194.5 -64.5t140.5 -85t90 -120.5t29 -164q0 -209 -144.5 -326.5t-381.5 -117.5z" />
    <glyph glyph-name="T" unicode="T" horiz-adv-x="1327" 
d="M506 0v1143h-436v291h1187v-291h-436v-1143h-315z" />
    <glyph glyph-name="U" unicode="U" horiz-adv-x="1548" 
d="M770 -23q-294 0 -457 162.5t-163 474.5v820h315v-811q0 -173 81 -264t228 -91t228 88t81 256v822h316v-809q0 -319 -166.5 -483.5t-462.5 -164.5z" />
    <glyph glyph-name="V" unicode="V" horiz-adv-x="1536" 
d="M629 -10l-580 1444h348l375 -1010l375 1010h340l-580 -1444h-278z" />
    <glyph glyph-name="W" unicode="W" horiz-adv-x="2297" 
d="M551 -10l-490 1444h338l297 -971l322 975h270l322 -975l297 971h329l-489 -1444h-274l-324 938l-324 -938h-274z" />
    <glyph glyph-name="X" unicode="X" horiz-adv-x="1499" 
d="M63 0l500 729l-479 705h369l301 -465l303 465h358l-479 -701l500 -733h-369l-322 492l-323 -492h-359z" />
    <glyph glyph-name="Y" unicode="Y" horiz-adv-x="1466" 
d="M575 0v565l-550 869h368l342 -576l348 576h359l-551 -863v-571h-316z" />
    <glyph glyph-name="Z" unicode="Z" horiz-adv-x="1449" 
d="M129 0v240l789 917h-764v277h1169v-240l-788 -918h788v-276h-1194z" />
    <glyph glyph-name="bracketleft" unicode="[" horiz-adv-x="952" 
d="M170 -266v1700h661v-244h-362v-1213h362v-243h-661z" />
    <glyph glyph-name="backslash" unicode="\" horiz-adv-x="1085" 
d="M879 -262l-908 1896h265l907 -1896h-264z" />
    <glyph glyph-name="bracketright" unicode="]" horiz-adv-x="952" 
d="M121 -266v243h362v1213h-362v244h661v-1700h-661z" />
    <glyph glyph-name="asciicircum" unicode="^" 
d="M102 1010l304 424h212l304 -424h-226l-186 239l-186 -239h-222z" />
    <glyph glyph-name="underscore" unicode="_" horiz-adv-x="1228" 
d="M-4 -328v238h1237v-238h-1237z" />
    <glyph glyph-name="grave" unicode="`" 
d="M487 1219l-262 245l269 117l231 -362h-238z" />
    <glyph glyph-name="a" unicode="a" horiz-adv-x="1212" 
d="M451 -20q-162 0 -269.5 89.5t-107.5 249.5q0 174 119.5 262.5t322.5 88.5q138 0 268 -45v18q0 98 -59.5 149.5t-175.5 51.5q-141 0 -303 -60l-78 238q100 44 198 66t228 22q248 0 371 -123q118 -118 118 -350v-637h-301v119q-126 -139 -331 -139zM545 195
q108 0 175.5 53.5t67.5 138.5v55q-87 41 -198 41q-101 0 -158 -40t-57 -115q0 -62 47 -97.5t123 -35.5z" />
    <glyph glyph-name="b" unicode="b" horiz-adv-x="1382" 
d="M793 -20q-205 0 -342 163v-143h-312v1495h312v-555q133 178 342 178q97 0 186 -38t159 -108t112 -180t42 -245q0 -133 -41 -242.5t-111 -179.5t-159 -107.5t-188 -37.5zM713 244q112 0 190 85t78 222q0 133 -78 218t-190 85t-189.5 -85.5t-77.5 -221.5q0 -134 78 -218.5
t189 -84.5z" />
    <glyph glyph-name="c" unicode="c" horiz-adv-x="1169" 
d="M657 -25q-121 0 -228 45t-182 122t-118 182.5t-43 222.5q0 156 73 286t206 207.5t297 77.5q147 0 250 -49.5t186 -142.5l-183 -185q-59 55 -115 82t-141 27q-115 0 -190.5 -88t-75.5 -215q0 -129 77 -216t202 -87q74 0 132 29t120 87l182 -184q-89 -98 -192.5 -149.5
t-256.5 -51.5z" />
    <glyph glyph-name="d" unicode="d" horiz-adv-x="1382" 
d="M590 -20q-97 0 -186 38t-159.5 108t-112.5 180t-42 245q0 133 41.5 242.5t111.5 179.5t159 107.5t188 37.5q204 0 342 -164v541h311v-1495h-311v158q-133 -178 -342 -178zM670 244q112 0 189 85.5t77 221.5q0 134 -77.5 218.5t-188.5 84.5q-112 0 -190.5 -85t-78.5 -222
q0 -133 78.5 -218t190.5 -85z" />
    <glyph glyph-name="e" unicode="e" horiz-adv-x="1255" 
d="M659 -25q-249 0 -411 159.5t-162 412.5q0 156 68.5 286t193.5 207.5t281 77.5q133 0 237.5 -49t168 -133t96 -189.5t32.5 -224.5q0 -24 -4 -82h-764q23 -105 93.5 -160t175.5 -55q78 0 139.5 26.5t126.5 86.5l178 -158q-165 -205 -449 -205zM391 635h469
q-14 107 -74.5 170t-156.5 63q-95 0 -157 -62.5t-81 -170.5z" />
    <glyph glyph-name="f" unicode="f" horiz-adv-x="782" 
d="M193 0v831h-130v256h130v70q0 178 88 266q86 86 251 86q127 0 222 -30v-258q-73 26 -142 26q-112 0 -112 -119v-43h252v-254h-248v-831h-311z" />
    <glyph glyph-name="g" unicode="g" horiz-adv-x="1382" 
d="M631 -332q-270 0 -486 115l107 233q179 -100 371 -100q313 0 313 299v53q-74 -89 -157 -133.5t-201 -44.5q-97 0 -184.5 35t-155.5 99t-108 163t-40 219q0 119 40.5 217.5t109 162t156 98t182.5 34.5q118 0 200 -42.5t154 -121.5v144h311v-850q0 -293 -139 -432
q-148 -148 -473 -148zM668 348q115 0 191.5 72t76.5 186q0 111 -76.5 182.5t-191.5 71.5t-191 -72t-76 -186q0 -113 76 -183.5t191 -70.5z" />
    <glyph glyph-name="h" unicode="h" horiz-adv-x="1275" 
d="M139 0v1495h312v-553q64 82 138.5 129t182.5 47q176 0 274.5 -108.5t98.5 -298.5v-711h-311v612q0 109 -49.5 166.5t-139.5 57.5q-91 0 -142.5 -57.5t-51.5 -166.5v-612h-312z" />
    <glyph glyph-name="i" unicode="i" horiz-adv-x="618" 
d="M145 1219v276h328v-276h-328zM154 0v1098h311v-1098h-311z" />
    <glyph glyph-name="j" unicode="j" horiz-adv-x="618" 
d="M145 1219v276h328v-276h-328zM113 -334q-71 0 -136 12v244q37 -6 66 -6q111 0 111 127v1055h311v-1080q0 -352 -352 -352z" />
    <glyph glyph-name="k" unicode="k" horiz-adv-x="1212" 
d="M139 0v1495h312v-797l364 400h373l-418 -432l432 -666h-356l-287 449l-108 -115v-334h-312z" />
    <glyph glyph-name="l" unicode="l" horiz-adv-x="618" 
d="M154 0v1495h311v-1495h-311z" />
    <glyph glyph-name="m" unicode="m" horiz-adv-x="1945" 
d="M139 0v1098h312v-156q64 82 139.5 129t183.5 47q107 0 186.5 -45t122.5 -129q148 174 361 174q175 0 273 -103.5t98 -299.5v-715h-312v612q0 110 -47 167t-135 57q-89 0 -138.5 -57.5t-49.5 -166.5v-612h-312v612q0 110 -47 167t-135 57q-89 0 -138.5 -57.5t-49.5 -166.5
v-612h-312z" />
    <glyph glyph-name="n" unicode="n" horiz-adv-x="1275" 
d="M139 0v1098h312v-156q64 82 138.5 129t182.5 47q176 0 274.5 -108.5t98.5 -298.5v-711h-311v612q0 109 -49.5 166.5t-139.5 57.5q-91 0 -142.5 -57.5t-51.5 -166.5v-612h-312z" />
    <glyph glyph-name="o" unicode="o" horiz-adv-x="1359" 
d="M678 -25q-167 0 -303 76t-212.5 207t-76.5 289q0 117 45.5 222t124 182t189.5 122t237 45q167 0 303 -76t212.5 -206.5t76.5 -288.5q0 -156 -77 -287t-214 -208t-305 -77zM682 244q130 0 207.5 87t77.5 216q0 125 -81.5 214t-207.5 89q-130 0 -207.5 -87t-77.5 -216
q0 -125 81.5 -214t207.5 -89z" />
    <glyph glyph-name="p" unicode="p" horiz-adv-x="1382" 
d="M139 -328v1426h312v-158q133 178 342 178q97 0 186 -38t159 -108t112 -180t42 -245q0 -133 -41 -242.5t-111 -179.5t-159 -107.5t-188 -37.5q-205 0 -342 163v-471h-312zM713 244q112 0 190 85t78 222q0 133 -78 218t-190 85t-189.5 -85.5t-77.5 -221.5q0 -134 78 -218.5
t189 -84.5z" />
    <glyph glyph-name="q" unicode="q" horiz-adv-x="1382" 
d="M932 -328v486q-133 -178 -342 -178q-97 0 -186 38t-159.5 108t-112.5 180t-42 245q0 133 41.5 242.5t111.5 179.5t159 107.5t188 37.5q204 0 342 -164v144h311v-1426h-311zM670 244q112 0 189 85.5t77 221.5q0 134 -77.5 218.5t-188.5 84.5q-112 0 -190.5 -85t-78.5 -222
q0 -133 78.5 -218t190.5 -85z" />
    <glyph glyph-name="r" unicode="r" horiz-adv-x="856" 
d="M139 0v1098h312v-221q104 252 350 241v-325h-17q-159 0 -246 -97t-87 -290v-406h-312z" />
    <glyph glyph-name="s" unicode="s" horiz-adv-x="1028" 
d="M524 -20q-121 0 -243.5 41t-227.5 124l133 205q181 -131 346 -131q132 0 132 86q0 11 -3.5 21t-11.5 18.5t-16.5 15.5t-24 14t-27.5 12t-32.5 12t-34.5 11t-38.5 11.5t-39.5 11.5q-54 16 -94 31.5t-86.5 43t-76.5 61t-50 84.5t-20 114q0 162 114.5 255t286.5 93
q104 0 212.5 -33.5t197.5 -93.5l-119 -215q-176 102 -297 102q-56 0 -85.5 -21.5t-29.5 -57.5q0 -26 28.5 -48.5t63 -36t98.5 -35.5q7 -2 11 -3.5t10.5 -3.5t11.5 -4q45 -15 78.5 -28.5t75.5 -34t70.5 -45t55 -56.5t39.5 -74t13 -92q0 -175 -116 -264.5t-304 -89.5z" />
    <glyph glyph-name="t" unicode="t" horiz-adv-x="849" 
d="M510 -18q-154 0 -237 74.5t-83 254.5v520h-131v267h131v280h312v-280h258v-267h-258v-469q0 -54 24 -80t76 -26q84 0 154 39v-250q-107 -63 -246 -63z" />
    <glyph glyph-name="u" unicode="u" horiz-adv-x="1275" 
d="M504 -20q-176 0 -274.5 108.5t-98.5 298.5v711h311v-613q0 -109 49.5 -166t139.5 -57q91 0 142.5 57.5t51.5 165.5v613h312v-1098h-312v156q-64 -82 -138.5 -129t-182.5 -47z" />
    <glyph glyph-name="v" unicode="v" horiz-adv-x="1228" 
d="M473 -8l-432 1106h330l245 -736l248 736h324l-432 -1106h-283z" />
    <glyph glyph-name="w" unicode="w" horiz-adv-x="1763" 
d="M387 -8l-338 1106h316l176 -666l207 670h268l209 -672l180 668h309l-342 -1106h-280l-211 674l-215 -674h-279z" />
    <glyph glyph-name="x" unicode="x" horiz-adv-x="1196" 
d="M47 0l385 557l-371 541h334l205 -320l207 320h326l-371 -535l387 -563h-334l-221 342l-221 -342h-326z" />
    <glyph glyph-name="y" unicode="y" horiz-adv-x="1228" 
d="M401 -334q-147 0 -276 76l104 225q71 -43 133 -43q40 0 64.5 15.5t44.5 56.5l-430 1102h330l250 -748l239 748h324l-422 -1125q-64 -169 -143.5 -238t-217.5 -69z" />
    <glyph glyph-name="z" unicode="z" horiz-adv-x="1153" 
d="M102 0v219l568 627h-549v252h936v-219l-570 -627h570v-252h-955z" />
    <glyph glyph-name="braceleft" unicode="{" horiz-adv-x="1003" 
d="M852 -289q-139 24 -233 61t-147.5 89t-76 113t-22.5 143q0 15 3 69t3 72q0 118 -51.5 164.5t-173.5 46.5h-54v238h54q122 0 173.5 46.5t51.5 164.5q0 18 -3 72t-3 69q0 82 22.5 143t76 112.5t147.5 88.5t233 61l55 -207q-81 -23 -130.5 -45.5t-76 -52.5t-35 -62t-8.5 -83
q0 -20 3.5 -75t3.5 -77q0 -109 -53 -174t-160 -100q106 -35 159.5 -100.5t53.5 -174.5q0 -22 -3.5 -76.5t-3.5 -74.5q0 -51 8.5 -83t35 -62.5t76 -53t130.5 -45.5z" />
    <glyph glyph-name="bar" unicode="|" horiz-adv-x="716" 
d="M236 -262v1896h245v-1896h-245z" />
    <glyph glyph-name="braceright" unicode="}" horiz-adv-x="1003" 
d="M152 -289l-56 207q81 23 130.5 45.5t76 53t35 62.5t8.5 83q0 20 -3 74.5t-3 76.5q0 109 53.5 174.5t159.5 100.5q-107 35 -160 100t-53 174q0 22 3 77t3 75q0 51 -8.5 83t-35 62t-76 52.5t-130.5 45.5l56 207q139 -24 233 -61t147.5 -88.5t76 -112.5t22.5 -143
q0 -15 -3 -69t-3 -72q0 -118 51.5 -164.5t173.5 -46.5h53v-238h-53q-122 0 -173.5 -46.5t-51.5 -164.5q0 -18 3 -72t3 -69q0 -82 -22.5 -143t-76 -113t-147.5 -89t-233 -61z" />
    <glyph glyph-name="asciitilde" unicode="~" horiz-adv-x="1044" 
d="M266 459l-166 51q39 141 96 212t158 71q54 0 115.5 -20t112.5 -40t80 -20q44 0 68 23t48 77l166 -51q-39 -141 -96 -212t-158 -71q-54 0 -115 20t-112 40t-80 20q-44 0 -68.5 -23t-48.5 -77z" />
    <glyph glyph-name="nbspace" unicode="&#xa0;" horiz-adv-x="614" 
 />
    <glyph glyph-name="exclamdown" unicode="&#xa1;" horiz-adv-x="663" 
d="M166 1106v328h332v-328h-332zM150 0v41l96 905h172l96 -905v-41h-364z" />
    <glyph glyph-name="cent" unicode="&#xa2;" horiz-adv-x="1189" 
d="M426 -12l39 200q-165 61 -267 207.5t-102 331.5q0 156 73.5 286.5t205.5 207.5t295 77h12l29 148h213l-35 -180q122 -42 221 -152l-184 -199q-56 56 -101 78l-112 -567q110 13 221 115l176 -179q-179 -201 -438 -206l-33 -168h-213zM528 463l111 567q-105 -9 -173.5 -95
t-68.5 -208q0 -87 34 -156.5t97 -107.5z" />
    <glyph glyph-name="sterling" unicode="&#xa3;" horiz-adv-x="1318" 
d="M123 0v207l156 51v289h-156v260h156v166q0 228 122 350q131 131 363 131q161 0 270 -62t191 -173l-240 -193q-55 71 -104.5 103t-112.5 32q-72 0 -117 -45q-53 -53 -53 -151v-158h467v-260h-467v-275h623v-272h-1098z" />
    <glyph glyph-name="currency" unicode="&#xa4;" horiz-adv-x="1474" 
d="M895 -25q-229 0 -386.5 126.5t-219.5 342.5h-189v207h154q-2 20 -2 66q0 49 2 74h-154v206h193q65 209 221 335t375 126q122 0 219.5 -35.5t161.5 -90t123 -136.5l-238 -180q-62 83 -124.5 122.5t-147.5 39.5q-179 0 -262 -181h378v-206h-426q-2 -23 -2 -74q0 -46 2 -66
h426v-207h-381q82 -188 277 -188q84 0 143.5 39t132.5 129l226 -166q-98 -138 -216.5 -210.5t-285.5 -72.5z" />
    <glyph glyph-name="yen" unicode="&#xa5;" horiz-adv-x="1404" 
d="M551 0v188h-377v222h377v127h-377v221h293l-438 676h362l316 -531l317 531h352l-442 -676h297v-221h-377v-127h377v-222h-377v-188h-303z" />
    <glyph glyph-name="brokenbar" unicode="&#xa6;" horiz-adv-x="454" 
d="M373 842h-291v512h291v-512zM373 -182h-291v512h291v-512z" />
    <glyph glyph-name="section" unicode="&#xa7;" horiz-adv-x="1294" 
d="M666 -20q-300 0 -478 194l168 168q148 -135 301 -135q67 0 101.5 21t34.5 57t-46.5 59.5t-179.5 52.5q-247 55 -350.5 124t-103.5 186q0 170 182 239q-86 69 -86 191q0 147 112 232t308 85q299 0 477 -194l-168 -168q-148 135 -301 135q-64 0 -99.5 -20.5t-35.5 -57.5
q0 -35 43.5 -59t181.5 -54q249 -55 352 -122.5t103 -186.5q0 -171 -183 -240q41 -32 63.5 -82.5t22.5 -107.5q0 -146 -110.5 -231.5t-308.5 -85.5zM797 592q49 0 80.5 25t31.5 69q0 38 -48.5 65t-158.5 54q-145 37 -204 37q-49 0 -81 -25t-32 -69q0 -38 48.5 -65t158.5 -54
q145 -37 205 -37z" />
    <glyph glyph-name="dieresis" unicode="&#xa8;" 
d="M582 1219v276h299v-276h-299zM143 1219v276h299v-276h-299z" />
    <glyph glyph-name="copyright" unicode="&#xa9;" horiz-adv-x="1699" 
d="M848 -25q-204 0 -374.5 100t-267.5 270.5t-97 371.5q0 149 58 285.5t157 236.5t237 159.5t291 59.5t290.5 -59t235.5 -158.5t155.5 -236t57.5 -287.5q0 -149 -58 -285.5t-157 -237t-237 -160t-291 -59.5zM848 57q138 0 260.5 52.5t209 141.5t137 211.5t50.5 258.5
q0 179 -84.5 329t-235 238t-333.5 88q-184 0 -335.5 -89t-236.5 -241t-85 -333q0 -134 50 -255t136 -209t208 -140t259 -52zM858 319q-172 0 -287.5 117.5t-115.5 290.5q0 171 115.5 289.5t293.5 118.5q106 0 178.5 -31t133.5 -90l-113 -131q-98 88 -199 88q-97 0 -161 -71
t-64 -175q0 -100 63.5 -171t161.5 -71q61 0 106 22.5t97 69.5l115 -114q-66 -71 -141 -106.5t-183 -35.5z" />
    <glyph glyph-name="ordfeminine" unicode="&#xaa;" horiz-adv-x="798" 
d="M313 817q-90 0 -148.5 50t-58.5 139q0 95 66 143.5t178 48.5q74 0 148 -24v10q0 53 -33.5 81.5t-97.5 28.5q-78 0 -166 -32l-43 129q107 49 233 49q137 0 205 -68q66 -66 66 -192v-351h-166v66q-68 -78 -183 -78zM100 567v135h570v-135h-570zM365 936q60 0 97.5 30
t37.5 76v31q-59 23 -111 23q-55 0 -86 -22t-31 -64q0 -34 25.5 -54t67.5 -20z" />
    <glyph glyph-name="guillemotleft" unicode="&#xab;" horiz-adv-x="1320" 
d="M985 82l-344 459v16l344 459l238 -115l-267 -350l267 -350zM428 82l-344 459v16l344 459l238 -115l-267 -350l267 -350z" />
    <glyph glyph-name="logicalnot" unicode="&#xac;" horiz-adv-x="1310" 
d="M856 844h-696v278h987v-626h-291v348z" />
    <glyph glyph-name="uni00AD" unicode="&#xad;" horiz-adv-x="835" 
d="M102 485v299h631v-299h-631z" />
    <glyph glyph-name="registered" unicode="&#xae;" horiz-adv-x="1699" 
d="M848 -25q-204 0 -374.5 100t-267.5 270.5t-97 371.5q0 149 58 285.5t157 236.5t237 159.5t291 59.5t290.5 -59t235.5 -158.5t155.5 -236t57.5 -287.5q0 -149 -58 -285.5t-157 -237t-237 -160t-291 -59.5zM848 57q138 0 260.5 52.5t209 141.5t137 211.5t50.5 258.5
q0 179 -84.5 329t-235 238t-333.5 88q-184 0 -335.5 -89t-236.5 -241t-85 -333q0 -134 50 -255t136 -209t208 -140t259 -52zM545 344v789h350q158 0 244 -86q65 -65 65 -177q0 -92 -45.5 -153t-124.5 -90l193 -283h-203l-172 254h-133v-254h-174zM719 748h174q65 0 100 31
t35 85q0 56 -36.5 85.5t-102.5 29.5h-170v-231z" />
    <glyph glyph-name="macron" unicode="&#xaf;" 
d="M143 1229v215h738v-215h-738z" />
    <glyph glyph-name="degree" unicode="&#xb0;" horiz-adv-x="983" 
d="M492 754q-141 0 -248 103.5t-107 244.5q0 91 49.5 171t131.5 126.5t174 46.5q141 0 247.5 -103.5t106.5 -244.5q0 -139 -107 -241.5t-247 -102.5zM492 907q81 0 134.5 57t53.5 138q0 78 -54 134t-134 56q-81 0 -135 -56.5t-54 -137.5q0 -78 54.5 -134.5t134.5 -56.5z" />
    <glyph glyph-name="plusminus" unicode="&#xb1;" horiz-adv-x="1310" 
d="M160 35v264h991v-264h-991zM512 424v289h-371v278h371v289h289v-289h364v-278h-364v-289h-289z" />
    <glyph glyph-name="twosuperior" unicode="&#xb2;" 
d="M0 0v1434h1024v-1434h-1024zM166 100h694l-348 523zM100 197l351 520l-351 520v-1040zM922 197v1040l-351 -520zM512 809l348 522h-694z" />
    <glyph glyph-name="threesuperior" unicode="&#xb3;" 
d="M0 0v1434h1024v-1434h-1024zM166 100h694l-348 523zM100 197l351 520l-351 520v-1040zM922 197v1040l-351 -520zM512 809l348 522h-694z" />
    <glyph glyph-name="acute" unicode="&#xb4;" 
d="M299 1219l231 362l269 -117l-262 -245h-238z" />
    <glyph glyph-name="mu" unicode="&#xb5;" horiz-adv-x="1286" 
d="M451 20v-348h-312v1426h312v-619q0 -92 52.5 -158.5t133.5 -66.5q92 0 144.5 62.5t52.5 172.5v609h313v-1098h-313v162q-46 -75 -118.5 -122.5t-162.5 -47.5q-37 0 -66 9.5t-36 18.5z" />
    <glyph glyph-name="paragraph" unicode="&#xb6;" horiz-adv-x="1208" 
d="M721 0v471h-49q-175 0 -308.5 52t-212.5 162t-79 267q0 223 155 352.5t410 129.5h399v-1434h-315z" />
    <glyph glyph-name="periodcentered" unicode="&#xb7;" horiz-adv-x="585" 
d="M127 471v328h332v-328h-332z" />
    <glyph glyph-name="cedilla" unicode="&#xb8;" 
d="M502 -354l-260 108l182 266h229z" />
    <glyph glyph-name="onesuperior" unicode="&#xb9;" 
d="M0 0v1434h1024v-1434h-1024zM166 100h694l-348 523zM100 197l351 520l-351 520v-1040zM922 197v1040l-351 -520zM512 809l348 522h-694z" />
    <glyph glyph-name="ordmasculine" unicode="&#xba;" horiz-adv-x="798" 
d="M397 815q-134 0 -223.5 90.5t-89.5 224.5q0 131 91.5 222.5t225.5 91.5t224 -91t90 -225q0 -131 -92 -222t-226 -91zM104 567v135h590v-135h-590zM401 963q66 0 106 48t40 119q0 68 -42 117t-108 49t-105.5 -48.5t-39.5 -119.5q0 -68 41.5 -116.5t107.5 -48.5z" />
    <glyph glyph-name="guillemotright" unicode="&#xbb;" horiz-adv-x="1320" 
d="M893 82l-238 115l267 350l-267 350l238 119l344 -459v-16zM336 82l-238 115l267 350l-267 350l238 119l344 -459v-16z" />
    <glyph glyph-name="onequarter" unicode="&#xbc;" 
d="M0 0v1434h1024v-1434h-1024zM166 100h694l-348 523zM100 197l351 520l-351 520v-1040zM922 197v1040l-351 -520zM512 809l348 522h-694z" />
    <glyph glyph-name="onehalf" unicode="&#xbd;" 
d="M0 0v1434h1024v-1434h-1024zM166 100h694l-348 523zM100 197l351 520l-351 520v-1040zM922 197v1040l-351 -520zM512 809l348 522h-694z" />
    <glyph glyph-name="threequarters" unicode="&#xbe;" 
d="M0 0v1434h1024v-1434h-1024zM166 100h694l-348 523zM100 197l351 520l-351 520v-1040zM922 197v1040l-351 -520zM512 809l348 522h-694z" />
    <glyph glyph-name="questiondown" unicode="&#xbf;" horiz-adv-x="1114" 
d="M446 1106v328h332v-328h-332zM571 -18q-225 0 -360 111.5t-135 312.5v4q0 94 30.5 166.5t88 120t126.5 77t158 47.5l23 125h209l47 -332l-10 -10q-188 -7 -273.5 -54t-85.5 -132v-4q0 -69 50 -107.5t139 -38.5q165 0 307 142l188 -207q-201 -221 -502 -221z" />
    <glyph glyph-name="Agrave" unicode="&#xc0;" horiz-adv-x="1617" 
d="M49 0l615 1444h290l615 -1444h-330l-131 322h-606l-131 -322h-322zM614 600h381l-190 465zM702 1546l-262 246l269 117l231 -363h-238z" />
    <glyph glyph-name="Aacute" unicode="&#xc1;" horiz-adv-x="1617" 
d="M49 0l615 1444h290l615 -1444h-330l-131 322h-606l-131 -322h-322zM614 600h381l-190 465zM678 1546l231 363l269 -117l-263 -246h-237z" />
    <glyph glyph-name="Acircumflex" unicode="&#xc2;" horiz-adv-x="1617" 
d="M49 0l615 1444h290l615 -1444h-330l-131 322h-606l-131 -322h-322zM614 600h381l-190 465zM410 1546l252 322h294l252 -322h-239l-162 135l-162 -135h-235z" />
    <glyph glyph-name="Atilde" unicode="&#xc3;" horiz-adv-x="1617" 
d="M49 0l615 1444h290l615 -1444h-330l-131 322h-606l-131 -322h-322zM614 600h381l-190 465zM553 1526l-166 51q39 141 96 212t158 71q54 0 115 -20t112 -40t80 -20q44 0 68.5 23t48.5 77l166 -51q-39 -141 -96 -212t-158 -71q-54 0 -115 20t-112 40t-80 20
q-44 0 -68.5 -23t-48.5 -77z" />
    <glyph glyph-name="Adieresis" unicode="&#xc4;" horiz-adv-x="1617" 
d="M49 0l615 1444h290l615 -1444h-330l-131 322h-606l-131 -322h-322zM614 600h381l-190 465zM879 1546v277h299v-277h-299zM440 1546v277h299v-277h-299z" />
    <glyph glyph-name="Aring" unicode="&#xc5;" horiz-adv-x="1617" 
d="M49 0l598 1407q-86 76 -86 178v4q0 96 74.5 167t173.5 71t173.5 -71t74.5 -167v-4q0 -102 -86 -178l598 -1407h-330l-131 322h-606l-131 -322h-322zM809 1460q52 0 89.5 37t37.5 88v4q0 51 -37.5 88t-89.5 37t-89.5 -37t-37.5 -88v-4q0 -51 37.5 -88t89.5 -37zM614 600
h381l-190 465z" />
    <glyph glyph-name="AE" unicode="&#xc6;" horiz-adv-x="2140" 
d="M18 0l773 1434h1230v-281h-716v-291h624v-280h-624v-301h727v-281h-1041v322h-481l-170 -322h-322zM657 600h334v561h-37z" />
    <glyph glyph-name="Ccedilla" unicode="&#xc7;" horiz-adv-x="1511" 
d="M764 -354l-260 108l164 242q-248 57 -403.5 255.5t-155.5 461.5v4q0 203 94 372t266 269t387 100q190 0 323 -57t242 -164l-200 -231q-88 79 -176 120t-191 41q-179 0 -297.5 -129.5t-118.5 -316.5v-4q0 -188 117.5 -319.5t298.5 -131.5q114 0 198 41t179 127l201 -203
q-111 -119 -235.5 -182t-299.5 -72z" />
    <glyph glyph-name="Egrave" unicode="&#xc8;" horiz-adv-x="1372" 
d="M172 0v1434h1081v-281h-768v-291h676v-280h-676v-301h779v-281h-1092zM649 1546l-262 246l268 117l232 -363h-238z" />
    <glyph glyph-name="Eacute" unicode="&#xc9;" horiz-adv-x="1372" 
d="M172 0v1434h1081v-281h-768v-291h676v-280h-676v-301h779v-281h-1092zM541 1546l231 363l268 -117l-262 -246h-237z" />
    <glyph glyph-name="Ecircumflex" unicode="&#xca;" horiz-adv-x="1372" 
d="M172 0v1434h1081v-281h-768v-291h676v-280h-676v-301h779v-281h-1092zM309 1546l252 322h295l252 -322h-240l-161 135l-162 -135h-236z" />
    <glyph glyph-name="Edieresis" unicode="&#xcb;" horiz-adv-x="1372" 
d="M172 0v1434h1081v-281h-768v-291h676v-280h-676v-301h779v-281h-1092zM778 1546v277h299v-277h-299zM340 1546v277h299v-277h-299z" />
    <glyph glyph-name="Igrave" unicode="&#xcc;" horiz-adv-x="688" 
d="M186 0v1434h316v-1434h-316zM238 1546l-263 246l269 117l231 -363h-237z" />
    <glyph glyph-name="Iacute" unicode="&#xcd;" horiz-adv-x="688" 
d="M186 0v1434h316v-1434h-316zM213 1546l231 363l269 -117l-262 -246h-238z" />
    <glyph glyph-name="Icircumflex" unicode="&#xce;" horiz-adv-x="688" 
d="M186 0v1434h316v-1434h-316zM-55 1546l252 322h295l251 -322h-239l-162 135l-162 -135h-235z" />
    <glyph glyph-name="Idieresis" unicode="&#xcf;" horiz-adv-x="688" 
d="M186 0v1434h316v-1434h-316zM414 1546v277h299v-277h-299zM-25 1546v277h299v-277h-299z" />
    <glyph glyph-name="Eth" unicode="&#xd0;" horiz-adv-x="1662" 
d="M233 0v582h-153v278h153v574h560q221 0 395.5 -94t270 -257t95.5 -366q0 -150 -56 -282t-155 -228t-241.5 -151.5t-308.5 -55.5h-560zM545 285h248q193 0 312.5 119.5t119.5 312.5q0 191 -119.5 311.5t-312.5 120.5h-248v-289h311v-278h-311v-297z" />
    <glyph glyph-name="Ntilde" unicode="&#xd1;" horiz-adv-x="1617" 
d="M172 0v1434h291l672 -883v883h311v-1434h-268l-695 911v-911h-311zM553 1526l-166 51q39 141 96 212t158 71q54 0 115 -20t112 -40t80 -20q44 0 68.5 23t48.5 77l166 -51q-39 -141 -96 -212t-158 -71q-54 0 -115 20t-112 40t-80 20q-44 0 -68.5 -23t-48.5 -77z" />
    <glyph glyph-name="Ograve" unicode="&#xd2;" horiz-adv-x="1740" 
d="M868 -25q-162 0 -304.5 58.5t-241.5 158t-156 236t-57 289.5q0 151 57.5 287.5t157.5 236.5t243 158.5t305 58.5q217 0 391.5 -99t271.5 -268.5t97 -373.5q0 -151 -58 -287.5t-158 -236.5t-243 -159t-305 -59zM872 266q188 0 309.5 130.5t121.5 320.5q0 187 -123.5 318.5
t-311.5 131.5t-309 -130t-121 -320q0 -122 55 -225t155 -164.5t224 -61.5zM743 1546l-262 246l269 117l231 -363h-238z" />
    <glyph glyph-name="Oacute" unicode="&#xd3;" horiz-adv-x="1740" 
d="M868 -25q-162 0 -304.5 58.5t-241.5 158t-156 236t-57 289.5q0 151 57.5 287.5t157.5 236.5t243 158.5t305 58.5q217 0 391.5 -99t271.5 -268.5t97 -373.5q0 -151 -58 -287.5t-158 -236.5t-243 -159t-305 -59zM872 266q188 0 309.5 130.5t121.5 320.5q0 187 -123.5 318.5
t-311.5 131.5t-309 -130t-121 -320q0 -122 55 -225t155 -164.5t224 -61.5zM760 1546l231 363l269 -117l-263 -246h-237z" />
    <glyph glyph-name="Ocircumflex" unicode="&#xd4;" horiz-adv-x="1740" 
d="M868 -25q-162 0 -304.5 58.5t-241.5 158t-156 236t-57 289.5q0 151 57.5 287.5t157.5 236.5t243 158.5t305 58.5q217 0 391.5 -99t271.5 -268.5t97 -373.5q0 -151 -58 -287.5t-158 -236.5t-243 -159t-305 -59zM872 266q188 0 309.5 130.5t121.5 320.5q0 187 -123.5 318.5
t-311.5 131.5t-309 -130t-121 -320q0 -122 55 -225t155 -164.5t224 -61.5zM471 1546l252 322h295l252 -322h-240l-162 135l-161 -135h-236z" />
    <glyph glyph-name="Otilde" unicode="&#xd5;" horiz-adv-x="1740" 
d="M868 -25q-162 0 -304.5 58.5t-241.5 158t-156 236t-57 289.5q0 151 57.5 287.5t157.5 236.5t243 158.5t305 58.5q217 0 391.5 -99t271.5 -268.5t97 -373.5q0 -151 -58 -287.5t-158 -236.5t-243 -159t-305 -59zM872 266q188 0 309.5 130.5t121.5 320.5q0 187 -123.5 318.5
t-311.5 131.5t-309 -130t-121 -320q0 -122 55 -225t155 -164.5t224 -61.5zM614 1526l-165 51q39 141 95.5 212t157.5 71q54 0 115.5 -20t112.5 -40t80 -20q44 0 68 23t48 77l166 -51q-39 -141 -96 -212t-158 -71q-54 0 -115 20t-112 40t-80 20q-44 0 -68.5 -23t-48.5 -77z
" />
    <glyph glyph-name="Odieresis" unicode="&#xd6;" horiz-adv-x="1740" 
d="M868 -25q-162 0 -304.5 58.5t-241.5 158t-156 236t-57 289.5q0 151 57.5 287.5t157.5 236.5t243 158.5t305 58.5q217 0 391.5 -99t271.5 -268.5t97 -373.5q0 -151 -58 -287.5t-158 -236.5t-243 -159t-305 -59zM872 266q188 0 309.5 130.5t121.5 320.5q0 187 -123.5 318.5
t-311.5 131.5t-309 -130t-121 -320q0 -122 55 -225t155 -164.5t224 -61.5zM940 1546v277h299v-277h-299zM502 1546v277h299v-277h-299z" />
    <glyph glyph-name="multiply" unicode="&#xd7;" horiz-adv-x="1310" 
d="M1192 383l-203 -201l-336 334l-334 -334l-202 201l336 336l-336 336l202 200l334 -333l336 333l203 -200l-336 -336z" />
    <glyph glyph-name="Oslash" unicode="&#xd8;" horiz-adv-x="1740" 
d="M868 -25q-219 0 -395 103l-80 -88h-301l201 231q-184 206 -184 496q0 151 57.5 287.5t157.5 236.5t243 158.5t305 58.5q221 0 396 -102l80 88h301l-201 -234q184 -203 184 -493q0 -151 -58 -287.5t-158 -236.5t-243 -159t-305 -59zM502 465l569 659q-95 50 -203 50
q-189 0 -312.5 -132.5t-123.5 -324.5q0 -137 70 -252zM872 260q189 0 313 132.5t124 324.5q0 137 -70 252l-569 -660q93 -49 202 -49z" />
    <glyph glyph-name="Ugrave" unicode="&#xd9;" horiz-adv-x="1548" 
d="M770 -23q-294 0 -457 162.5t-163 474.5v820h315v-811q0 -173 81 -264t228 -91t228 88t81 256v822h316v-809q0 -319 -166.5 -483.5t-462.5 -164.5zM678 1536l-262 246l268 116l231 -362h-237z" />
    <glyph glyph-name="Uacute" unicode="&#xda;" horiz-adv-x="1548" 
d="M770 -23q-294 0 -457 162.5t-163 474.5v820h315v-811q0 -173 81 -264t228 -91t228 88t81 256v822h316v-809q0 -319 -166.5 -483.5t-462.5 -164.5zM633 1536l231 362l269 -116l-263 -246h-237z" />
    <glyph glyph-name="Ucircumflex" unicode="&#xdb;" horiz-adv-x="1548" 
d="M770 -23q-294 0 -457 162.5t-163 474.5v820h315v-811q0 -173 81 -264t228 -91t228 88t81 256v822h316v-809q0 -319 -166.5 -483.5t-462.5 -164.5zM375 1546l252 322h295l252 -322h-240l-162 135l-162 -135h-235z" />
    <glyph glyph-name="Udieresis" unicode="&#xdc;" horiz-adv-x="1548" 
d="M770 -23q-294 0 -457 162.5t-163 474.5v820h315v-811q0 -173 81 -264t228 -91t228 88t81 256v822h316v-809q0 -319 -166.5 -483.5t-462.5 -164.5zM844 1546v277h299v-277h-299zM406 1546v277h299v-277h-299z" />
    <glyph glyph-name="Yacute" unicode="&#xdd;" horiz-adv-x="1466" 
d="M575 0v565l-550 869h368l342 -576l348 576h359l-551 -863v-571h-316zM612 1536l232 362l268 -116l-262 -246h-238z" />
    <glyph glyph-name="Thorn" unicode="&#xde;" horiz-adv-x="1378" 
d="M172 0v1434h315v-209h271q253 0 401 -136.5t148 -359.5v-4q0 -121 -45 -218t-124.5 -159t-184 -94.5t-226.5 -32.5h-240v-221h-315zM487 502h250q116 0 183 61t67 156v4q0 104 -68 160.5t-188 56.5h-244v-438z" />
    <glyph glyph-name="germandbls" unicode="&#xdf;" horiz-adv-x="1269" 
d="M612 -4v233q127 6 194.5 54.5t67.5 138.5q0 80 -72 131.5t-190 67.5v204q85 53 133 115t48 143q0 76 -44.5 120t-119.5 44q-80 0 -130 -56t-50 -149v-1042h-310v1030q0 225 136 352t368 127q214 0 335.5 -112.5t121.5 -288.5q0 -83 -27 -149.5t-64.5 -105.5t-95.5 -79
q269 -116 269 -366q0 -194 -142 -303t-385 -109h-43z" />
    <glyph glyph-name="agrave" unicode="&#xe0;" horiz-adv-x="1212" 
d="M451 -20q-162 0 -269.5 89.5t-107.5 249.5q0 174 119.5 262.5t322.5 88.5q138 0 268 -45v18q0 98 -59.5 149.5t-175.5 51.5q-141 0 -303 -60l-78 238q100 44 198 66t228 22q248 0 371 -123q118 -118 118 -350v-637h-301v119q-126 -139 -331 -139zM545 195
q108 0 175.5 53.5t67.5 138.5v55q-87 41 -198 41q-101 0 -158 -40t-57 -115q0 -62 47 -97.5t123 -35.5zM520 1219l-262 245l268 117l232 -362h-238z" />
    <glyph glyph-name="aacute" unicode="&#xe1;" horiz-adv-x="1212" 
d="M451 -20q-162 0 -269.5 89.5t-107.5 249.5q0 174 119.5 262.5t322.5 88.5q138 0 268 -45v18q0 98 -59.5 149.5t-175.5 51.5q-141 0 -303 -60l-78 238q100 44 198 66t228 22q248 0 371 -123q118 -118 118 -350v-637h-301v119q-126 -139 -331 -139zM545 195
q108 0 175.5 53.5t67.5 138.5v55q-87 41 -198 41q-101 0 -158 -40t-57 -115q0 -62 47 -97.5t123 -35.5zM465 1219l231 362l269 -117l-263 -245h-237z" />
    <glyph glyph-name="acircumflex" unicode="&#xe2;" horiz-adv-x="1212" 
d="M451 -20q-162 0 -269.5 89.5t-107.5 249.5q0 174 119.5 262.5t322.5 88.5q138 0 268 -45v18q0 98 -59.5 149.5t-175.5 51.5q-141 0 -303 -60l-78 238q100 44 198 66t228 22q248 0 371 -123q118 -118 118 -350v-637h-301v119q-126 -139 -331 -139zM545 195
q108 0 175.5 53.5t67.5 138.5v55q-87 41 -198 41q-101 0 -158 -40t-57 -115q0 -62 47 -97.5t123 -35.5zM203 1219l252 321h295l251 -321h-239l-162 135l-162 -135h-235z" />
    <glyph glyph-name="atilde" unicode="&#xe3;" horiz-adv-x="1212" 
d="M451 -20q-162 0 -269.5 89.5t-107.5 249.5q0 174 119.5 262.5t322.5 88.5q138 0 268 -45v18q0 98 -59.5 149.5t-175.5 51.5q-141 0 -303 -60l-78 238q100 44 198 66t228 22q248 0 371 -123q118 -118 118 -350v-637h-301v119q-126 -139 -331 -139zM545 195
q108 0 175.5 53.5t67.5 138.5v55q-87 41 -198 41q-101 0 -158 -40t-57 -115q0 -62 47 -97.5t123 -35.5zM350 1198l-166 51q39 141 96 212t158 71q54 0 115 -20t112 -40t80 -20q44 0 68.5 23t48.5 77l166 -51q-38 -141 -95.5 -211.5t-158.5 -70.5q-54 0 -115 19.5t-112 39.5
t-80 20q-44 0 -68.5 -23t-48.5 -77z" />
    <glyph glyph-name="adieresis" unicode="&#xe4;" horiz-adv-x="1212" 
d="M451 -20q-162 0 -269.5 89.5t-107.5 249.5q0 174 119.5 262.5t322.5 88.5q138 0 268 -45v18q0 98 -59.5 149.5t-175.5 51.5q-141 0 -303 -60l-78 238q100 44 198 66t228 22q248 0 371 -123q118 -118 118 -350v-637h-301v119q-126 -139 -331 -139zM545 195
q108 0 175.5 53.5t67.5 138.5v55q-87 41 -198 41q-101 0 -158 -40t-57 -115q0 -62 47 -97.5t123 -35.5zM672 1219v276h299v-276h-299zM233 1219v276h299v-276h-299z" />
    <glyph glyph-name="aring" unicode="&#xe5;" horiz-adv-x="1212" 
d="M451 -20q-162 0 -269.5 89.5t-107.5 249.5q0 174 119.5 262.5t322.5 88.5q138 0 268 -45v18q0 98 -59.5 149.5t-175.5 51.5q-141 0 -303 -60l-78 238q100 44 198 66t228 22q248 0 371 -123q118 -118 118 -350v-637h-301v119q-126 -139 -331 -139zM545 195
q108 0 175.5 53.5t67.5 138.5v55q-87 41 -198 41q-101 0 -158 -40t-57 -115q0 -62 47 -97.5t123 -35.5zM602 1214q-99 0 -173.5 71t-74.5 167v4q0 96 74.5 167t173.5 71t173.5 -71t74.5 -167v-4q0 -96 -74.5 -167t-173.5 -71zM602 1327q52 0 89.5 37t37.5 88v4
q0 51 -37.5 88t-89.5 37t-89.5 -37t-37.5 -88v-4q0 -51 37.5 -88t89.5 -37z" />
    <glyph glyph-name="ae" unicode="&#xe6;" horiz-adv-x="1947" 
d="M487 -20q-183 0 -298 90t-115 249q0 174 119.5 262.5t322.5 88.5q138 0 268 -45v18q0 98 -59.5 149.5t-175.5 51.5q-141 0 -303 -60l-78 238q100 44 198 66t228 22q259 0 373 -139q144 147 362 147q129 0 231.5 -49t165.5 -133t96 -189.5t33 -224.5q0 -24 -4 -82h-764
q23 -105 93.5 -160t175.5 -55q78 0 139.5 26.5t126.5 86.5l178 -158q-165 -205 -448 -205q-125 0 -233 43.5t-185 122.5q-219 -161 -447 -161zM1083 635h469q-14 107 -74.5 170t-156.5 63q-95 0 -157 -62.5t-81 -170.5zM545 199q147 0 280 104q-31 74 -39 141
q-90 39 -196 39q-101 0 -158 -40t-57 -115q0 -59 48.5 -94t121.5 -35z" />
    <glyph glyph-name="ccedilla" unicode="&#xe7;" horiz-adv-x="1169" 
d="M575 -354l-260 108l168 246q-179 54 -288 202.5t-109 340.5v4q0 156 73 286t206 207.5t297 77.5q149 0 253 -46.5t185 -137.5l-191 -205q-58 61 -115 91t-135 30q-115 0 -190.5 -87.5t-75.5 -211.5v-4q0 -129 77 -216t202 -87q74 0 132 29t120 87l182 -184
q-83 -90 -174.5 -140.5t-222.5 -58.5z" />
    <glyph glyph-name="egrave" unicode="&#xe8;" horiz-adv-x="1255" 
d="M659 -25q-249 0 -411 159.5t-162 412.5q0 156 68.5 286t193.5 207.5t281 77.5q133 0 237.5 -49t168 -133t96 -189.5t32.5 -224.5q0 -24 -4 -82h-764q23 -105 93.5 -160t175.5 -55q78 0 139.5 26.5t126.5 86.5l178 -158q-165 -205 -449 -205zM391 635h469
q-14 107 -74.5 170t-156.5 63q-95 0 -157 -62.5t-81 -170.5zM512 1219l-262 245l268 117l232 -362h-238z" />
    <glyph glyph-name="eacute" unicode="&#xe9;" horiz-adv-x="1255" 
d="M659 -25q-249 0 -411 159.5t-162 412.5q0 156 68.5 286t193.5 207.5t281 77.5q133 0 237.5 -49t168 -133t96 -189.5t32.5 -224.5q0 -24 -4 -82h-764q23 -105 93.5 -160t175.5 -55q78 0 139.5 26.5t126.5 86.5l178 -158q-165 -205 -449 -205zM391 635h469
q-14 107 -74.5 170t-156.5 63q-95 0 -157 -62.5t-81 -170.5zM504 1219l231 362l269 -117l-263 -245h-237z" />
    <glyph glyph-name="ecircumflex" unicode="&#xea;" horiz-adv-x="1255" 
d="M659 -25q-249 0 -411 159.5t-162 412.5q0 156 68.5 286t193.5 207.5t281 77.5q133 0 237.5 -49t168 -133t96 -189.5t32.5 -224.5q0 -24 -4 -82h-764q23 -105 93.5 -160t175.5 -55q78 0 139.5 26.5t126.5 86.5l178 -158q-165 -205 -449 -205zM391 635h469
q-14 107 -74.5 170t-156.5 63q-95 0 -157 -62.5t-81 -170.5zM227 1219l252 321h295l252 -321h-240l-161 135l-162 -135h-236z" />
    <glyph glyph-name="edieresis" unicode="&#xeb;" horiz-adv-x="1255" 
d="M659 -25q-249 0 -411 159.5t-162 412.5q0 156 68.5 286t193.5 207.5t281 77.5q133 0 237.5 -49t168 -133t96 -189.5t32.5 -224.5q0 -24 -4 -82h-764q23 -105 93.5 -160t175.5 -55q78 0 139.5 26.5t126.5 86.5l178 -158q-165 -205 -449 -205zM391 635h469
q-14 107 -74.5 170t-156.5 63q-95 0 -157 -62.5t-81 -170.5zM696 1219v276h299v-276h-299zM258 1219v276h299v-276h-299z" />
    <glyph glyph-name="igrave" unicode="&#xec;" horiz-adv-x="618" 
d="M154 0v1098h311v-1098h-311zM207 1219l-262 245l268 117l231 -362h-237z" />
    <glyph glyph-name="iacute" unicode="&#xed;" horiz-adv-x="618" 
d="M154 0v1098h311v-1098h-311zM174 1219l232 362l268 -117l-262 -245h-238z" />
    <glyph glyph-name="icircumflex" unicode="&#xee;" horiz-adv-x="618" 
d="M154 0v1098h311v-1098h-311zM-90 1219l252 321h295l252 -321h-240l-162 135l-162 -135h-235z" />
    <glyph glyph-name="idieresis" unicode="&#xef;" horiz-adv-x="618" 
d="M154 0v1098h311v-1098h-311zM379 1219v276h299v-276h-299zM-59 1219v276h299v-276h-299z" />
    <glyph glyph-name="eth" unicode="&#xf0;" horiz-adv-x="1327" 
d="M653 -25q-161 0 -291.5 71.5t-203 195t-72.5 274.5q0 213 131.5 346t337.5 133q130 0 252 -65l-178 237l-234 -96l-114 154l235 94l-131 176h350l47 -68l205 84l113 -153l-209 -84l166 -236q97 -137 138.5 -252.5t41.5 -248.5q0 -114 -40 -215.5t-113 -179t-184.5 -122.5
t-246.5 -45zM664 238q123 0 196.5 77t73.5 195q0 112 -75 188t-197 76q-123 0 -198 -75t-75 -193q0 -114 77 -191t198 -77z" />
    <glyph glyph-name="ntilde" unicode="&#xf1;" horiz-adv-x="1275" 
d="M139 0v1098h312v-156q64 82 138.5 129t182.5 47q176 0 274.5 -108.5t98.5 -298.5v-711h-311v612q0 109 -49.5 166.5t-139.5 57.5q-91 0 -142.5 -57.5t-51.5 -166.5v-612h-312zM391 1198l-166 51q39 141 96 212t158 71q54 0 115 -20t112 -40t80 -20q44 0 68.5 23t48.5 77
l166 -51q-38 -141 -95.5 -211.5t-158.5 -70.5q-54 0 -115 19.5t-112 39.5t-80 20q-44 0 -68.5 -23t-48.5 -77z" />
    <glyph glyph-name="ograve" unicode="&#xf2;" horiz-adv-x="1359" 
d="M678 -25q-167 0 -303 76t-212.5 207t-76.5 289q0 117 45.5 222t124 182t189.5 122t237 45q167 0 303 -76t212.5 -206.5t76.5 -288.5q0 -156 -77 -287t-214 -208t-305 -77zM682 244q130 0 207.5 87t77.5 216q0 125 -81.5 214t-207.5 89q-130 0 -207.5 -87t-77.5 -216
q0 -125 81.5 -214t207.5 -89zM561 1219l-262 245l268 117l232 -362h-238z" />
    <glyph glyph-name="oacute" unicode="&#xf3;" horiz-adv-x="1359" 
d="M678 -25q-167 0 -303 76t-212.5 207t-76.5 289q0 117 45.5 222t124 182t189.5 122t237 45q167 0 303 -76t212.5 -206.5t76.5 -288.5q0 -156 -77 -287t-214 -208t-305 -77zM682 244q130 0 207.5 87t77.5 216q0 125 -81.5 214t-207.5 89q-130 0 -207.5 -87t-77.5 -216
q0 -125 81.5 -214t207.5 -89zM561 1219l232 362l268 -117l-262 -245h-238z" />
    <glyph glyph-name="ocircumflex" unicode="&#xf4;" horiz-adv-x="1359" 
d="M678 -25q-167 0 -303 76t-212.5 207t-76.5 289q0 117 45.5 222t124 182t189.5 122t237 45q167 0 303 -76t212.5 -206.5t76.5 -288.5q0 -156 -77 -287t-214 -208t-305 -77zM682 244q130 0 207.5 87t77.5 216q0 125 -81.5 214t-207.5 89q-130 0 -207.5 -87t-77.5 -216
q0 -125 81.5 -214t207.5 -89zM281 1219l251 321h295l252 -321h-239l-162 135l-162 -135h-235z" />
    <glyph glyph-name="otilde" unicode="&#xf5;" horiz-adv-x="1359" 
d="M678 -25q-167 0 -303 76t-212.5 207t-76.5 289q0 117 45.5 222t124 182t189.5 122t237 45q167 0 303 -76t212.5 -206.5t76.5 -288.5q0 -156 -77 -287t-214 -208t-305 -77zM682 244q130 0 207.5 87t77.5 216q0 125 -81.5 214t-207.5 89q-130 0 -207.5 -87t-77.5 -216
q0 -125 81.5 -214t207.5 -89zM424 1198l-166 51q39 141 96 212t158 71q54 0 115 -20t112 -40t80 -20q44 0 68.5 23t48.5 77l166 -51q-38 -141 -95.5 -211.5t-158.5 -70.5q-54 0 -115 19.5t-112 39.5t-80 20q-44 0 -68.5 -23t-48.5 -77z" />
    <glyph glyph-name="odieresis" unicode="&#xf6;" horiz-adv-x="1359" 
d="M678 -25q-167 0 -303 76t-212.5 207t-76.5 289q0 117 45.5 222t124 182t189.5 122t237 45q167 0 303 -76t212.5 -206.5t76.5 -288.5q0 -156 -77 -287t-214 -208t-305 -77zM682 244q130 0 207.5 87t77.5 216q0 125 -81.5 214t-207.5 89q-130 0 -207.5 -87t-77.5 -216
q0 -125 81.5 -214t207.5 -89zM750 1219v276h299v-276h-299zM311 1219v276h299v-276h-299z" />
    <glyph glyph-name="divide" unicode="&#xf7;" horiz-adv-x="1310" 
d="M162 586v280h985v-280h-985zM496 1024v309h305v-309h-305zM496 119v309h305v-309h-305z" />
    <glyph glyph-name="oslash" unicode="&#xf8;" horiz-adv-x="1359" 
d="M678 -25q-157 0 -295 72l-55 -57h-273l164 188q-133 155 -133 369q0 117 45.5 222t124 182t189.5 122t237 45q160 0 293 -71l57 61h273q-80 -92 -166 -190q135 -154 135 -371q0 -156 -77 -287t-214 -208t-305 -77zM418 403l377 431q-53 24 -117 24q-134 0 -213.5 -89.5
t-79.5 -221.5q0 -73 33 -144zM682 236q134 0 213.5 89.5t79.5 221.5q0 72 -33 143l-377 -432q55 -22 117 -22z" />
    <glyph glyph-name="ugrave" unicode="&#xf9;" horiz-adv-x="1275" 
d="M504 -20q-176 0 -274.5 108.5t-98.5 298.5v711h311v-613q0 -109 49.5 -166t139.5 -57q91 0 142.5 57.5t51.5 165.5v613h312v-1098h-312v156q-64 -82 -138.5 -129t-182.5 -47zM551 1219l-262 245l268 117l231 -362h-237z" />
    <glyph glyph-name="uacute" unicode="&#xfa;" horiz-adv-x="1275" 
d="M504 -20q-176 0 -274.5 108.5t-98.5 298.5v711h311v-613q0 -109 49.5 -166t139.5 -57q91 0 142.5 57.5t51.5 165.5v613h312v-1098h-312v156q-64 -82 -138.5 -129t-182.5 -47zM485 1219l232 362l268 -117l-262 -245h-238z" />
    <glyph glyph-name="ucircumflex" unicode="&#xfb;" horiz-adv-x="1275" 
d="M504 -20q-176 0 -274.5 108.5t-98.5 298.5v711h311v-613q0 -109 49.5 -166t139.5 -57q91 0 142.5 57.5t51.5 165.5v613h312v-1098h-312v156q-64 -82 -138.5 -129t-182.5 -47zM238 1219l251 321h295l252 -321h-239l-162 135l-162 -135h-235z" />
    <glyph glyph-name="udieresis" unicode="&#xfc;" horiz-adv-x="1275" 
d="M504 -20q-176 0 -274.5 108.5t-98.5 298.5v711h311v-613q0 -109 49.5 -166t139.5 -57q91 0 142.5 57.5t51.5 165.5v613h312v-1098h-312v156q-64 -82 -138.5 -129t-182.5 -47zM707 1219v276h299v-276h-299zM268 1219v276h299v-276h-299z" />
    <glyph glyph-name="yacute" unicode="&#xfd;" horiz-adv-x="1228" 
d="M401 -334q-147 0 -276 76l104 225q71 -43 133 -43q40 0 64.5 15.5t44.5 56.5l-430 1102h330l250 -748l239 748h324l-422 -1125q-64 -169 -143.5 -238t-217.5 -69zM469 1219l231 362l269 -117l-262 -245h-238z" />
    <glyph glyph-name="thorn" unicode="&#xfe;" horiz-adv-x="1382" 
d="M139 -328v1823h312v-555q133 178 342 178q97 0 186 -37.5t159 -107.5t112 -179.5t42 -242.5v-4q0 -133 -41 -242.5t-111 -179.5t-159 -107.5t-188 -37.5q-205 0 -342 163v-471h-312zM713 244q112 0 190 84t78 219v4q0 133 -78 218t-190 85q-111 0 -189 -84.5t-78 -218.5
v-4q0 -134 78 -218.5t189 -84.5z" />
    <glyph glyph-name="ydieresis" unicode="&#xff;" horiz-adv-x="1228" 
d="M401 -334q-147 0 -276 76l104 225q71 -43 133 -43q40 0 64.5 15.5t44.5 56.5l-430 1102h330l250 -748l239 748h324l-422 -1125q-64 -169 -143.5 -238t-217.5 -69zM684 1219v276h299v-276h-299zM246 1219v276h299v-276h-299z" />
    <glyph glyph-name="dotlessi" unicode="&#x131;" horiz-adv-x="618" 
d="M154 0v1098h311v-1098h-311z" />
    <glyph glyph-name="Lslash" unicode="&#x141;" horiz-adv-x="1329" 
d="M233 0v537l-153 -45v292l153 45v605h312v-510l393 116v-292l-393 -117v-344h719v-287h-1031z" />
    <glyph glyph-name="lslash" unicode="&#x142;" horiz-adv-x="741" 
d="M217 0v573l-156 -47v293l156 47v629h307v-539l156 48v-293l-156 -47v-664h-307z" />
    <glyph glyph-name="OE" unicode="&#x152;" horiz-adv-x="2201" 
d="M870 0q-221 0 -395.5 94t-270 257t-95.5 366q0 150 56 282t155 228t241.5 151.5t308.5 55.5h1213v-281h-717v-291h625v-280h-625v-301h727v-281h-1223zM870 285h183v864h-183q-194 0 -313 -119.5t-119 -312.5q0 -191 119.5 -311.5t312.5 -120.5z" />
    <glyph glyph-name="oe" unicode="&#x153;" horiz-adv-x="2115" 
d="M659 -25q-154 0 -286 76t-209.5 208t-77.5 288q0 155 78 286.5t213 208t295 76.5q125 0 231.5 -48t181.5 -134q73 86 177.5 134t226.5 48q133 0 237.5 -49t168 -133t96 -189.5t32.5 -224.5q0 -24 -4 -82h-764q23 -105 93.5 -160t175.5 -55q78 0 139.5 26.5t126.5 86.5
l178 -158q-165 -205 -448 -205q-133 0 -246.5 49t-192.5 138q-76 -88 -185.5 -137.5t-236.5 -49.5zM1251 635h469q-14 107 -74.5 170t-156.5 63q-95 0 -157 -62.5t-81 -170.5zM672 244q125 0 199.5 87t74.5 216q0 125 -78 214t-200 89q-125 0 -200 -88t-75 -215
q0 -125 78.5 -214t200.5 -89z" />
    <glyph glyph-name="Scaron" unicode="&#x160;" horiz-adv-x="1310" 
d="M682 -20q-166 0 -324 58t-284 171l186 223q212 -174 428 -174q97 0 152 36.5t55 102.5q0 42 -22 70t-84.5 55.5t-182.5 57.5q-68 17 -117.5 32.5t-102.5 37t-89 44.5t-69.5 55.5t-53.5 71.5t-31.5 89.5t-11.5 111.5q0 194 140.5 313t361.5 119q306 0 532 -182l-164 -238
q-205 142 -372 142q-88 0 -136.5 -36t-48.5 -93q0 -69 60 -105t250 -84q115 -30 194.5 -64.5t140.5 -85t90 -120.5t29 -164q0 -209 -144.5 -326.5t-381.5 -117.5zM502 1546l-252 322h239l162 -135l162 135h236l-252 -322h-295z" />
    <glyph glyph-name="scaron" unicode="&#x161;" horiz-adv-x="1028" 
d="M524 -20q-121 0 -243.5 41t-227.5 124l133 205q181 -131 346 -131q132 0 132 86q0 11 -3.5 21t-11.5 18.5t-16.5 15.5t-24 14t-27.5 12t-32.5 12t-34.5 11t-38.5 11.5t-39.5 11.5q-54 16 -94 31.5t-86.5 43t-76.5 61t-50 84.5t-20 114q0 162 114.5 255t286.5 93
q104 0 212.5 -33.5t197.5 -93.5l-119 -215q-176 102 -297 102q-56 0 -85.5 -21.5t-29.5 -57.5q0 -26 28.5 -48.5t63 -36t98.5 -35.5q7 -2 11 -3.5t10.5 -3.5t11.5 -4q45 -15 78.5 -28.5t75.5 -34t70.5 -45t55 -56.5t39.5 -74t13 -92q0 -175 -116 -264.5t-304 -89.5z
M375 1219l-252 321h239l162 -135l162 135h236l-252 -321h-295z" />
    <glyph glyph-name="Ydieresis" unicode="&#x178;" horiz-adv-x="1466" 
d="M575 0v565l-550 869h368l342 -576l348 576h359l-551 -863v-571h-316zM803 1546v277h299v-277h-299zM365 1546v277h299v-277h-299z" />
    <glyph glyph-name="Zcaron" unicode="&#x17d;" horiz-adv-x="1449" 
d="M129 0v240l789 917h-764v277h1169v-240l-788 -918h788v-276h-1194zM584 1546l-252 322h239l162 -135l162 135h235l-251 -322h-295z" />
    <glyph glyph-name="zcaron" unicode="&#x17e;" horiz-adv-x="1153" 
d="M102 0v219l568 627h-549v252h936v-219l-570 -627h570v-252h-955zM444 1219l-251 321h239l162 -135l162 135h235l-252 -321h-295z" />
    <glyph glyph-name="florin" unicode="&#x192;" horiz-adv-x="1097" 
d="M205 -10q-75 0 -121 10v252q41 -6 76 -6q65 0 98 29t45 96l57 334h-137v256h183l28 151q31 165 120.5 248.5t266.5 83.5q123 0 203 -25v-258q-86 21 -139 21q-67 0 -104.5 -34t-49.5 -106l-14 -81h235v-256h-280l-68 -383q-32 -179 -126 -255.5t-273 -76.5z" />
    <glyph glyph-name="circumflex" unicode="&#x2c6;" 
d="M113 1219l252 321h294l252 -321h-239l-162 135l-162 -135h-235z" />
    <glyph glyph-name="caron" unicode="&#x2c7;" 
d="M365 1219l-252 321h239l162 -135l162 135h235l-252 -321h-294z" />
    <glyph glyph-name="breve" unicode="&#x2d8;" 
d="M512 1214q-164 0 -268 86t-117 240h209q42 -123 176 -123t176 123h209q-13 -154 -117 -240t-268 -86z" />
    <glyph glyph-name="dotaccent" unicode="&#x2d9;" 
d="M358 1219v276h308v-276h-308z" />
    <glyph glyph-name="ring" unicode="&#x2da;" 
d="M512 1214q-99 0 -173.5 71t-74.5 167v4q0 96 74.5 167t173.5 71t173.5 -71t74.5 -167v-4q0 -96 -74.5 -167t-173.5 -71zM512 1327q52 0 89.5 37t37.5 88v4q0 51 -37.5 88t-89.5 37t-89.5 -37t-37.5 -88v-4q0 -51 37.5 -88t89.5 -37z" />
    <glyph glyph-name="ogonek" unicode="&#x2db;" 
d="M760 -336q-196 -15 -303 42.5t-107 180.5q0 62 33 133h213q-12 -43 -12 -79q0 -65 41 -99.5t135 -40.5v-137z" />
    <glyph glyph-name="tilde" unicode="&#x2dc;" 
d="M256 1198l-166 51q39 141 96 212t158 71q54 0 115 -20t112 -40t80 -20q44 0 68.5 23t48.5 77l166 -51q-38 -141 -95.5 -211.5t-158.5 -70.5q-54 0 -115 19.5t-112 39.5t-80 20q-44 0 -68.5 -23t-48.5 -77z" />
    <glyph glyph-name="hungarumlaut" unicode="&#x2dd;" 
d="M473 1219l232 362l262 -117l-267 -245h-227zM74 1219l227 362l262 -117l-262 -245h-227z" />
    <glyph glyph-name="Omega" unicode="&#x3a9;" horiz-adv-x="1605" 
d="M1479 0h-592v426q135 30 204.5 132.5t69.5 246.5q0 106 -41 192.5t-122.5 139.5t-188.5 53q-109 0 -192 -54t-125.5 -142.5t-42.5 -196.5q0 -143 68.5 -243t201.5 -128v-426h-592v258h356v55q-170 48 -263 191.5t-93 326.5q0 143 54 262.5t147 198.5t217 122.5t264 43.5
q138 0 260 -43t213 -121.5t144 -197t53 -260.5q0 -185 -93 -333.5t-264 -189.5v-55h357v-258z" />
    <glyph glyph-name="pi" unicode="&#x3c0;" 
d="M0 0v1434h1024v-1434h-1024zM166 100h694l-348 523zM100 197l351 520l-351 520v-1040zM922 197v1040l-351 -520zM512 809l348 522h-694z" />
    <glyph glyph-name="afii10023" unicode="&#x401;" horiz-adv-x="1372" 
d="M172 0v1434h1081v-281h-768v-291h676v-280h-676v-301h779v-281h-1092zM776 1546v277h299v-277h-299zM338 1546v277h299v-277h-299z" />
    <glyph glyph-name="afii10051" unicode="&#x402;" horiz-adv-x="1777" 
d="M936 12l55 281q54 -8 90 -8q242 0 242 178q0 174 -246 174q-184 0 -309 -115v-522h-313v1155h-389v279h1214v-279h-512v-330q180 117 389 117q219 0 355.5 -125.5t136.5 -347.5q0 -242 -134.5 -367t-357.5 -125q-61 0 -124 11t-97 24z" />
    <glyph glyph-name="afii10052" unicode="&#x403;" horiz-adv-x="1224" 
d="M487 1149v-1149h-315v1434h1002v-285h-687zM444 1546l232 363l268 -117l-262 -246h-238z" />
    <glyph glyph-name="afii10053" unicode="&#x404;" horiz-adv-x="1501" 
d="M1034 854v-262h-588q36 -148 146 -241t262 -93q118 0 208 42.5t185 127.5l195 -211q-114 -123 -255.5 -182.5t-342.5 -59.5q-207 0 -376 98.5t-264 268t-95 375.5q0 203 94 372t266 269t387 100q179 0 308.5 -57t238.5 -160l-174 -217q-173 152 -375 152q-146 0 -256 -90
t-149 -232h585z" />
    <glyph glyph-name="afii10054" unicode="&#x405;" horiz-adv-x="1310" 
d="M682 -20q-166 0 -324 58t-284 171l186 223q212 -174 428 -174q97 0 152 36.5t55 102.5q0 42 -22 70t-84.5 55.5t-182.5 57.5q-68 17 -117.5 32.5t-102.5 37t-89 44.5t-69.5 55.5t-53.5 71.5t-31.5 89.5t-11.5 111.5q0 194 140.5 313t361.5 119q306 0 532 -182l-164 -238
q-205 142 -372 142q-88 0 -136.5 -36t-48.5 -93q0 -69 60 -105t250 -84q115 -30 194.5 -64.5t140.5 -85t90 -120.5t29 -164q0 -209 -144.5 -326.5t-381.5 -117.5z" />
    <glyph glyph-name="afii10055" unicode="&#x406;" horiz-adv-x="688" 
d="M186 0v1434h316v-1434h-316z" />
    <glyph glyph-name="afii10056" unicode="&#x407;" horiz-adv-x="688" 
d="M186 0v1434h316v-1434h-316zM414 1546v277h299v-277h-299zM-25 1546v277h299v-277h-299z" />
    <glyph glyph-name="afii10057" unicode="&#x408;" horiz-adv-x="1155" 
d="M498 -20q-289 0 -469 215l198 221q65 -72 127.5 -108t134.5 -36q92 0 142.5 58.5t50.5 179.5v924h324v-938q0 -247 -136 -383q-133 -133 -372 -133z" />
    <glyph glyph-name="afii10058" unicode="&#x409;" horiz-adv-x="2285" 
d="M1071 0v1149h-414v-109q0 -309 -25.5 -512.5t-84 -325t-143 -171t-211.5 -49.5q-96 0 -166 18l20 260q28 -4 49 -4q46 0 79 12t65 45t53 94.5t37.5 158t24 238.5t7.5 333v297h1024v-488h306q246 0 385 -126t139 -339q0 -222 -146.5 -351.5t-398.5 -129.5h-600zM1665 676
h-279v-391h281q236 0 236 200q0 92 -60.5 141.5t-177.5 49.5z" />
    <glyph glyph-name="afii10059" unicode="&#x40a;" horiz-adv-x="2283" 
d="M1679 0h-610v637h-582v-637h-315v1434h315v-535h582v535h315v-535h326q239 0 371.5 -120t132.5 -324q0 -218 -142 -336.5t-393 -118.5zM1677 637h-293v-352h295q111 0 165 44.5t54 137.5q0 170 -221 170z" />
    <glyph glyph-name="afii10060" unicode="&#x40b;" horiz-adv-x="1777" 
d="M768 522v-522h-313v1155h-389v279h1214v-279h-512v-330q180 117 389 117q220 0 356 -119.5t136 -333.5v-489h-314v356q0 135 -61.5 208t-181.5 73q-198 0 -324 -115z" />
    <glyph glyph-name="afii10061" unicode="&#x40c;" horiz-adv-x="1495" 
d="M172 0v1434h315v-627l582 627h381l-584 -609l611 -825h-379l-445 610l-166 -172v-438h-315zM621 1546l231 363l268 -117l-262 -246h-237z" />
    <glyph glyph-name="afii10062" unicode="&#x40e;" horiz-adv-x="1503" 
d="M778 676l346 758h342l-551 -1108q-93 -185 -204.5 -267t-264.5 -82q-161 0 -309 84l123 232q77 -47 170 -47q106 0 180 114l-573 1074h352zM774 1542q-141 0 -231.5 81.5t-112.5 229.5l182 33q44 -137 162 -137t162 137l182 -33q-22 -148 -112.5 -229.5t-231.5 -81.5z
" />
    <glyph glyph-name="afii10145" unicode="&#x40f;" horiz-adv-x="1540" 
d="M172 0v1434h313v-1147h570v1147h313v-1434h-446v-299h-306v299h-444z" />
    <glyph glyph-name="afii10017" unicode="&#x410;" horiz-adv-x="1617" 
d="M49 0l615 1444h290l615 -1444h-330l-131 322h-606l-131 -322h-322zM614 600h381l-190 465z" />
    <glyph glyph-name="afii10018" unicode="&#x411;" horiz-adv-x="1458" 
d="M487 1149v-250h379q239 0 371.5 -120t132.5 -324q0 -218 -141.5 -336.5t-392.5 -118.5h-664v1434h1100v-285h-785zM834 637h-347v-352h349q111 0 165 44.5t54 137.5q0 170 -221 170z" />
    <glyph glyph-name="afii10019" unicode="&#x412;" horiz-adv-x="1478" 
d="M172 0v1434h666q247 0 374 -127q99 -99 99 -248q0 -203 -189 -309q133 -50 201 -133t68 -224q0 -192 -144 -292.5t-393 -100.5h-682zM479 854h291q227 0 227 156q0 71 -53 109t-153 38h-312v-303zM479 276h375q223 0 223 160q0 74 -57.5 115t-175.5 41h-365v-316z" />
    <glyph glyph-name="afii10020" unicode="&#x413;" horiz-adv-x="1224" 
d="M487 1149v-1149h-315v1434h1002v-285h-687z" />
    <glyph glyph-name="afii10021" unicode="&#x414;" horiz-adv-x="1576" 
d="M20 -299v584h136q83 195 120 411.5t37 569.5v168h1043v-1149h172l-41 -584h-264v299h-897l-21 -299h-285zM1040 1149h-424v-145q0 -406 -129 -719h553v864z" />
    <glyph glyph-name="afii10022" unicode="&#x415;" horiz-adv-x="1372" 
d="M172 0v1434h1081v-281h-768v-291h676v-280h-676v-301h779v-281h-1092z" />
    <glyph glyph-name="afii10024" unicode="&#x416;" horiz-adv-x="2291" 
d="M1303 0h-314v381l-190 205l-404 -586h-377l568 813l-547 621h375l575 -670v670h314v-670l575 670h375l-547 -621l567 -813h-377l-405 586l-188 -205v-381z" />
    <glyph glyph-name="afii10025" unicode="&#x417;" horiz-adv-x="1339" 
d="M682 1458q229 0 373.5 -108.5t144.5 -276.5q0 -230 -231 -330q123 -39 195.5 -123t72.5 -214q0 -189 -149 -310t-396 -121q-218 0 -367.5 59t-269.5 181l168 219q185 -182 457 -182q104 0 173 46t69 126q0 85 -77.5 126.5t-207.5 41.5h-166v262h162q125 0 190.5 42.5
t65.5 123.5q0 74 -64 117t-168 43q-126 0 -218.5 -40t-168.5 -118l-166 201q108 113 246.5 174t331.5 61z" />
    <glyph glyph-name="afii10026" unicode="&#x418;" horiz-adv-x="1579" 
d="M1407 1434v-1434h-311v940l-627 -940h-297v1434h311v-940l631 940h293z" />
    <glyph glyph-name="afii10027" unicode="&#x419;" horiz-adv-x="1579" 
d="M1407 1434v-1434h-311v940l-627 -940h-297v1434h311v-940l631 940h293zM795 1542q-141 0 -231.5 81.5t-112.5 229.5l182 33q44 -137 162 -137q117 0 161 137l183 -33q-22 -148 -112.5 -229.5t-231.5 -81.5z" />
    <glyph glyph-name="afii10028" unicode="&#x41a;" horiz-adv-x="1495" 
d="M172 0v1434h315v-627l582 627h381l-584 -609l611 -825h-379l-445 610l-166 -172v-438h-315z" />
    <glyph glyph-name="afii10029" unicode="&#x41b;" horiz-adv-x="1558" 
d="M362 1434h1024v-1434h-315v1149h-414v-109q0 -212 -11.5 -371.5t-36.5 -277.5t-61 -196.5t-89.5 -126t-117 -67t-148.5 -19.5q-96 0 -166 18l20 260q28 -4 49 -4q46 0 79 12t65 45t53 94.5t37.5 158t24 238.5t7.5 333v297z" />
    <glyph glyph-name="afii10030" unicode="&#x41c;" horiz-adv-x="1777" 
d="M172 0v1434h340l377 -607l377 607h340v-1434h-314v936l-403 -612h-8l-400 606v-930h-309z" />
    <glyph glyph-name="afii10031" unicode="&#x41d;" horiz-adv-x="1556" 
d="M172 0v1434h315v-568h582v568h315v-1434h-315v575h-582v-575h-315z" />
    <glyph glyph-name="afii10032" unicode="&#x41e;" horiz-adv-x="1740" 
d="M868 -25q-162 0 -304.5 58.5t-241.5 158t-156 236t-57 289.5q0 151 57.5 287.5t157.5 236.5t243 158.5t305 58.5q217 0 391.5 -99t271.5 -268.5t97 -373.5q0 -151 -58 -287.5t-158 -236.5t-243 -159t-305 -59zM872 266q188 0 309.5 130.5t121.5 320.5q0 187 -123.5 318.5
t-311.5 131.5t-309 -130t-121 -320q0 -122 55 -225t155 -164.5t224 -61.5z" />
    <glyph glyph-name="afii10033" unicode="&#x41f;" horiz-adv-x="1540" 
d="M172 0v1434h1196v-1434h-315v1149h-566v-1149h-315z" />
    <glyph glyph-name="afii10034" unicode="&#x420;" horiz-adv-x="1368" 
d="M172 0v1434h586q254 0 401.5 -137.5t147.5 -362.5q0 -121 -45 -218t-124.5 -159t-184 -94.5t-226.5 -32.5h-240v-430h-315zM487 711h250q116 0 183 61.5t67 159.5q0 104 -68 160.5t-188 56.5h-244v-438z" />
    <glyph glyph-name="afii10035" unicode="&#x421;" horiz-adv-x="1511" 
d="M844 -25q-207 0 -376 98.5t-264 268t-95 375.5q0 203 94 372t266 269t387 100q187 0 314 -60t241 -173l-188 -217q-92 83 -173 121t-196 38q-119 0 -214.5 -60t-148.5 -163t-53 -227q0 -188 117.5 -319.5t298.5 -131.5q114 0 198 41t179 127l201 -215
q-116 -124 -252.5 -184t-335.5 -60z" />
    <glyph glyph-name="afii10036" unicode="&#x422;" horiz-adv-x="1327" 
d="M506 0v1143h-436v291h1187v-291h-436v-1143h-315z" />
    <glyph glyph-name="afii10037" unicode="&#x423;" horiz-adv-x="1503" 
d="M778 676l346 758h342l-551 -1108q-93 -185 -204.5 -267t-264.5 -82q-161 0 -309 84l123 232q77 -47 170 -47q106 0 180 114l-573 1074h352z" />
    <glyph glyph-name="afii10038" unicode="&#x424;" horiz-adv-x="1908" 
d="M1112 1077v-698q174 0 279.5 95t105.5 255q0 158 -105.5 253t-279.5 95zM1112 -57h-315v155q-162 0 -297 48.5t-225 134t-139.5 202.5t-49.5 252q0 273 193.5 448t517.5 175v131h315v-131q161 0 295 -47t225 -130.5t141 -198.5t50 -249q0 -135 -49.5 -251t-139.5 -201.5
t-225 -134t-297 -48.5v-155zM797 379v698q-174 0 -280.5 -95t-106.5 -253q0 -160 106.5 -255t280.5 -95z" />
    <glyph glyph-name="afii10039" unicode="&#x425;" horiz-adv-x="1499" 
d="M63 0l500 729l-479 705h369l301 -465l303 465h358l-479 -701l500 -733h-369l-322 492l-323 -492h-359z" />
    <glyph glyph-name="afii10040" unicode="&#x426;" horiz-adv-x="1587" 
d="M1235 -299v299h-1063v1434h315v-1149h566v1149h315v-1149h170l-41 -584h-262z" />
    <glyph glyph-name="afii10041" unicode="&#x427;" horiz-adv-x="1490" 
d="M1004 0v535q-219 -107 -379 -107q-146 0 -252 50t-168 159.5t-62 271.5v525h316v-433q0 -278 231 -278q92 0 177 26t137 66v619h315v-1434h-315z" />
    <glyph glyph-name="afii10042" unicode="&#x428;" horiz-adv-x="2312" 
d="M2140 1434v-1434h-1968v1434h315v-1149h510v1149h316v-1149h512v1149h315z" />
    <glyph glyph-name="afii10043" unicode="&#x429;" horiz-adv-x="2359" 
d="M2007 -299v299h-1835v1434h315v-1149h510v1149h316v-1149h512v1149h315v-1149h170l-41 -584h-262z" />
    <glyph glyph-name="afii10044" unicode="&#x42a;" horiz-adv-x="1617" 
d="M997 676h-278v-391h280q236 0 236 200q0 92 -60.5 141.5t-177.5 49.5zM719 1434v-488h305q246 0 385 -126t139 -339q0 -222 -146 -351.5t-398 -129.5h-601v1149h-342v285h658z" />
    <glyph glyph-name="afii10045" unicode="&#x42b;" horiz-adv-x="1964" 
d="M172 0v1434h315v-488h306q246 0 385 -126t139 -339q0 -222 -146.5 -351.5t-398.5 -129.5h-600zM766 676h-279v-391h281q236 0 236 200q0 92 -60.5 141.5t-177.5 49.5zM1477 0v1434h315v-1434h-315z" />
    <glyph glyph-name="afii10046" unicode="&#x42c;" horiz-adv-x="1386" 
d="M172 0v1434h315v-488h306q246 0 385 -126t139 -339q0 -222 -146.5 -351.5t-398.5 -129.5h-600zM766 676h-279v-391h281q236 0 236 200q0 92 -60.5 141.5t-177.5 49.5z" />
    <glyph glyph-name="afii10047" unicode="&#x42d;" horiz-adv-x="1501" 
d="M467 592v262h586q-39 142 -149 232t-257 90q-202 0 -375 -152l-174 217q109 103 238.5 160t308.5 57q162 0 302 -58.5t237.5 -158.5t153 -236t55.5 -288q0 -154 -56 -291t-153 -236t-234.5 -157t-292.5 -58q-201 0 -342.5 59.5t-255.5 182.5l195 211q95 -85 185 -127.5
t208 -42.5q152 0 262 93t146 241h-588z" />
    <glyph glyph-name="afii10048" unicode="&#x42e;" horiz-adv-x="2181" 
d="M1372 -25q-180 0 -328 79t-240 215.5t-120 310.5h-197v-580h-315v1434h315v-572h199q30 170 123.5 305t241.5 213t325 78q201 0 361 -98t248 -267t88 -376q0 -205 -88.5 -374t-249.5 -268.5t-363 -99.5zM1376 262q164 0 267.5 129.5t103.5 325.5q0 125 -47 228
t-133.5 163.5t-194.5 60.5q-164 0 -267.5 -128t-103.5 -324q0 -193 105 -324t270 -131z" />
    <glyph glyph-name="afii10049" unicode="&#x42f;" horiz-adv-x="1480" 
d="M1307 1434v-1434h-316v459h-248l-307 -459h-368l350 512q-143 54 -225 166.5t-82 282.5q0 222 143.5 347.5t396.5 125.5h656zM672 737h319v412h-313q-118 0 -183 -53t-65 -156q0 -92 64 -147.5t178 -55.5z" />
    <glyph glyph-name="afii10065" unicode="&#x430;" horiz-adv-x="1212" 
d="M451 -20q-162 0 -269.5 89.5t-107.5 249.5q0 174 119.5 262.5t322.5 88.5q138 0 268 -45v18q0 98 -59.5 149.5t-175.5 51.5q-141 0 -303 -60l-78 238q100 44 198 66t228 22q248 0 371 -123q118 -118 118 -350v-637h-301v119q-126 -139 -331 -139zM545 195
q108 0 175.5 53.5t67.5 138.5v55q-87 41 -198 41q-101 0 -158 -40t-57 -115q0 -62 47 -97.5t123 -35.5z" />
    <glyph glyph-name="afii10066" unicode="&#x431;" horiz-adv-x="1339" 
d="M686 244q118 0 191 80.5t73 201.5q0 120 -77 203.5t-191 83.5q-117 0 -190.5 -82.5t-73.5 -204.5q0 -118 76.5 -200t191.5 -82zM682 -25q-278 0 -425.5 169.5t-147.5 486.5q0 79 3.5 142.5t15.5 137.5t32 132.5t55 117t82.5 101t116.5 75.5t155 49l588 109l49 -246
l-602 -119q-250 -51 -266 -258q17 30 49 60t80.5 59t119 47.5t150.5 18.5q103 0 198.5 -40.5t166.5 -110t113 -168t42 -208.5q0 -112 -43.5 -214t-118.5 -177t-182.5 -119.5t-230.5 -44.5z" />
    <glyph glyph-name="afii10067" unicode="&#x432;" horiz-adv-x="1228" 
d="M139 1098h602q167 0 267 -73.5t100 -201.5q0 -172 -174 -248q215 -66 215 -276q0 -139 -109.5 -219t-300.5 -80h-600v1098zM446 657h220q64 0 97.5 31t33.5 80q0 43 -31.5 71.5t-95.5 28.5h-224v-211zM446 244h246q70 0 106 29.5t36 80.5q0 47 -37.5 77t-112.5 30h-238
v-217z" />
    <glyph glyph-name="afii10068" unicode="&#x433;" horiz-adv-x="970" 
d="M940 831h-489v-831h-312v1098h801v-267z" />
    <glyph glyph-name="afii10069" unicode="&#x434;" horiz-adv-x="1320" 
d="M455 266h374v565h-292v-24q-2 -167 -19 -298.5t-63 -242.5zM991 0h-688l-22 -258h-263v524h119q63 135 85 318.5t22 419.5v94h897v-832h149l-37 -524h-262v258z" />
    <glyph glyph-name="afii10070" unicode="&#x435;" horiz-adv-x="1255" 
d="M659 -25q-249 0 -411 159.5t-162 412.5q0 156 68.5 286t193.5 207.5t281 77.5q133 0 237.5 -49t168 -133t96 -189.5t32.5 -224.5q0 -24 -4 -82h-764q23 -105 93.5 -160t175.5 -55q78 0 139.5 26.5t126.5 86.5l178 -158q-165 -205 -449 -205zM391 635h469
q-14 107 -74.5 170t-156.5 63q-95 0 -157 -62.5t-81 -170.5z" />
    <glyph glyph-name="afii10072" unicode="&#x436;" horiz-adv-x="1824" 
d="M1069 0h-313v285l-131 153l-277 -438h-348l416 643l-404 455h359l385 -467v467h313v-467l385 467h361l-404 -455l414 -643h-346l-279 438l-131 -153v-285z" />
    <glyph glyph-name="afii10073" unicode="&#x437;" horiz-adv-x="1071" 
d="M205 750l-133 190q87 80 206 126t257 46q179 0 298 -85t119 -212q0 -173 -168 -248q195 -70 195 -256q0 -144 -124.5 -240t-317.5 -96q-303 0 -500 175l143 198q68 -59 154.5 -92t175.5 -33q69 0 115.5 34.5t46.5 82.5t-48.5 80.5t-134.5 32.5h-129v194h127
q71 0 114.5 33t43.5 80q0 43 -40.5 73.5t-102.5 30.5q-177 0 -297 -114z" />
    <glyph glyph-name="afii10074" unicode="&#x438;" horiz-adv-x="1300" 
d="M1161 1098v-1098h-301v639l-428 -639h-293v1098h301v-641l428 641h293z" />
    <glyph glyph-name="afii10075" unicode="&#x439;" horiz-adv-x="1300" 
d="M1161 1098v-1098h-301v639l-428 -639h-293v1098h301v-641l428 641h293zM659 1202q-141 0 -231.5 81.5t-112.5 229.5l183 33q44 -137 161 -137q118 0 162 137l183 -33q-22 -147 -113 -229t-232 -82z" />
    <glyph glyph-name="afii10076" unicode="&#x43a;" horiz-adv-x="1251" 
d="M139 0v1098h312v-451l393 451h358l-403 -451l454 -647h-368l-293 418l-141 -154v-264h-312z" />
    <glyph glyph-name="afii10077" unicode="&#x43b;" horiz-adv-x="1292" 
d="M270 1098h883v-1098h-311v831h-279q0 -181 -10 -314.5t-33 -227t-53.5 -152.5t-78 -92t-99.5 -45t-125 -12q-84 0 -158 18l21 252q36 -6 65 -6q40 0 64 13t48.5 60.5t37 138.5t20.5 247.5t8 386.5z" />
    <glyph glyph-name="afii10078" unicode="&#x43c;" horiz-adv-x="1507" 
d="M139 0v1098h316l297 -461l301 461h315v-1098h-315v659l-305 -450l-302 444v-653h-307z" />
    <glyph glyph-name="afii10079" unicode="&#x43d;" horiz-adv-x="1284" 
d="M1145 1098v-1098h-311v420h-383v-420h-312v1098h312v-422h383v422h311z" />
    <glyph glyph-name="afii10080" unicode="&#x43e;" horiz-adv-x="1359" 
d="M678 -25q-167 0 -303 76t-212.5 207t-76.5 289q0 117 45.5 222t124 182t189.5 122t237 45q167 0 303 -76t212.5 -206.5t76.5 -288.5q0 -156 -77 -287t-214 -208t-305 -77zM682 244q130 0 207.5 87t77.5 216q0 125 -81.5 214t-207.5 89q-130 0 -207.5 -87t-77.5 -216
q0 -125 81.5 -214t207.5 -89z" />
    <glyph glyph-name="afii10081" unicode="&#x43f;" horiz-adv-x="1275" 
d="M1137 1098v-1098h-312v831h-374v-831h-312v1098h998z" />
    <glyph glyph-name="afii10082" unicode="&#x440;" horiz-adv-x="1382" 
d="M139 -328v1426h312v-158q133 178 342 178q97 0 186 -38t159 -108t112 -180t42 -245q0 -133 -41 -242.5t-111 -179.5t-159 -107.5t-188 -37.5q-205 0 -342 163v-471h-312zM713 244q112 0 190 85t78 222q0 133 -78 218t-190 85t-189.5 -85.5t-77.5 -221.5q0 -134 78 -218.5
t189 -84.5z" />
    <glyph glyph-name="afii10083" unicode="&#x441;" horiz-adv-x="1169" 
d="M657 -25q-121 0 -228 45t-182 122t-118 182.5t-43 222.5q0 156 73 286t206 207.5t297 77.5q147 0 250 -49.5t186 -142.5l-183 -185q-59 55 -115 82t-141 27q-115 0 -190.5 -88t-75.5 -215q0 -129 77 -216t202 -87q74 0 132 29t120 87l182 -184q-89 -98 -192.5 -149.5
t-256.5 -51.5z" />
    <glyph glyph-name="afii10084" unicode="&#x442;" horiz-adv-x="1028" 
d="M997 1098v-267h-325v-831h-316v831h-325v267h966z" />
    <glyph glyph-name="afii10085" unicode="&#x443;" horiz-adv-x="1228" 
d="M401 -334q-147 0 -276 76l104 225q71 -43 133 -43q40 0 64.5 15.5t44.5 56.5l-430 1102h330l250 -748l239 748h324l-422 -1125q-64 -169 -143.5 -238t-217.5 -69z" />
    <glyph glyph-name="afii10086" unicode="&#x444;" horiz-adv-x="1849" 
d="M1214 850q-63 0 -133 -53v-502q65 -49 133 -49q114 0 174 79.5t60 221.5q0 138 -61 220.5t-173 82.5zM1081 -328h-313v402q-34 -37 -98 -62.5t-135 -25.5q-199 0 -322 149.5t-123 411.5q0 261 123.5 412t323.5 151q69 0 132.5 -30t98.5 -72v426h313v-426q35 42 99 72
t133 30q200 0 323 -151t123 -412q0 -262 -122.5 -411.5t-321.5 -149.5q-71 0 -135.5 25.5t-98.5 62.5v-402zM635 850q-112 0 -173 -82.5t-61 -220.5q0 -142 60 -221.5t174 -79.5q68 0 133 49v502q-70 53 -133 53z" />
    <glyph glyph-name="afii10087" unicode="&#x445;" horiz-adv-x="1196" 
d="M47 0l385 557l-371 541h334l205 -320l207 320h326l-371 -535l387 -563h-334l-221 342l-221 -342h-326z" />
    <glyph glyph-name="afii10088" unicode="&#x446;" horiz-adv-x="1316" 
d="M987 -258v258h-848v1098h312v-832h374v832h312v-832h149l-37 -524h-262z" />
    <glyph glyph-name="afii10089" unicode="&#x447;" horiz-adv-x="1241" 
d="M424 1098v-344q0 -181 151 -181q107 0 213 54v471h314v-1098h-314v383q-148 -72 -296 -72q-169 0 -276 94t-107 261v432h315z" />
    <glyph glyph-name="afii10090" unicode="&#x448;" horiz-adv-x="1912" 
d="M1774 1098v-1098h-1635v1098h312v-832h350v832h311v-832h348v832h314z" />
    <glyph glyph-name="afii10091" unicode="&#x449;" horiz-adv-x="1953" 
d="M1624 0h-1485v1098h312v-832h350v832h311v-832h348v832h314v-832h149l-37 -524h-262v258z" />
    <glyph glyph-name="afii10092" unicode="&#x44a;" horiz-adv-x="1329" 
d="M821 500h-194v-254h196q76 0 115 33.5t39 97.5q0 58 -40.5 90.5t-115.5 32.5zM627 1098v-363h225q199 0 318.5 -92t119.5 -270q0 -174 -112 -273.5t-310 -99.5h-553v836h-284v262h596z" />
    <glyph glyph-name="afii10093" unicode="&#x44b;" horiz-adv-x="1710" 
d="M139 0v1098h312v-363h225q199 0 318.5 -92t119.5 -270q0 -174 -112 -273.5t-310 -99.5h-553zM645 500h-194v-254h196q76 0 115 33.5t39 97.5q0 58 -40.5 90.5t-115.5 32.5zM1260 0v1098h311v-1098h-311z" />
    <glyph glyph-name="afii10094" unicode="&#x44c;" horiz-adv-x="1153" 
d="M139 0v1098h312v-363h225q199 0 318.5 -92t119.5 -270q0 -174 -112 -273.5t-310 -99.5h-553zM645 500h-194v-254h196q76 0 115 33.5t39 97.5q0 58 -40.5 90.5t-115.5 32.5z" />
    <glyph glyph-name="afii10095" unicode="&#x44d;" horiz-adv-x="1177" 
d="M395 444v209h381q-28 92 -97 148.5t-161 56.5q-156 0 -266 -104l-162 190q174 174 426 174q164 0 297 -77.5t206 -207.5t73 -286q0 -157 -73.5 -288t-205 -207.5t-293.5 -76.5q-154 0 -261.5 52t-195.5 149l177 178q62 -59 125 -88.5t141 -29.5q100 0 172 56.5t100 151.5
h-383z" />
    <glyph glyph-name="afii10096" unicode="&#x44e;" horiz-adv-x="1779" 
d="M1139 -25q-210 0 -356 124t-183 321h-149v-420h-312v1098h312v-422h149q41 194 187.5 318t355.5 124q161 0 288 -76t195 -206t68 -289q0 -157 -68.5 -287t-196.5 -207.5t-290 -77.5zM1143 244q120 0 181.5 85t61.5 218q0 128 -65.5 215.5t-181.5 87.5q-120 0 -182 -85
t-62 -218q0 -128 66 -215.5t182 -87.5z" />
    <glyph glyph-name="afii10097" unicode="&#x44f;" horiz-adv-x="1251" 
d="M1112 1098v-1098h-311v352h-168l-232 -352h-360l281 403q-230 88 -230 328q0 168 117 267.5t328 99.5h575zM590 578h211v276h-213q-85 0 -132.5 -36t-47.5 -103q0 -65 48.5 -101t133.5 -36z" />
    <glyph glyph-name="afii10071" unicode="&#x451;" horiz-adv-x="1255" 
d="M659 -25q-249 0 -411 159.5t-162 412.5q0 156 68.5 286t193.5 207.5t281 77.5q133 0 237.5 -49t168 -133t96 -189.5t32.5 -224.5q0 -24 -4 -82h-764q23 -105 93.5 -160t175.5 -55q78 0 139.5 26.5t126.5 86.5l178 -158q-165 -205 -449 -205zM391 635h469
q-14 107 -74.5 170t-156.5 63q-95 0 -157 -62.5t-81 -170.5zM696 1219v276h299v-276h-299zM258 1219v276h299v-276h-299z" />
    <glyph glyph-name="afii10099" unicode="&#x452;" horiz-adv-x="1275" 
d="M834 487v43q0 109 -49.5 166.5t-139.5 57.5q-91 0 -142.5 -57.5t-51.5 -166.5v-530h-312v1128h-135v218h135v149h312v-149h319v-218h-319v-268q64 82 138.5 129t182.5 47q176 0 274.5 -108.5t98.5 -298.5v-234q0 -190 -108 -300.5t-283 -110.5q-47 0 -86.5 5t-59 10.5
t-43 13.5t-30.5 10l51 237q14 -4 45 -4q92 0 147.5 61t55.5 170z" />
    <glyph glyph-name="afii10100" unicode="&#x453;" horiz-adv-x="970" 
d="M940 831h-489v-831h-312v1098h801v-267zM338 1219l231 362l269 -117l-263 -245h-237z" />
    <glyph glyph-name="afii10101" unicode="&#x454;" horiz-adv-x="1177" 
d="M782 653v-209h-383q28 -95 100 -151.5t173 -56.5q78 0 141 29.5t125 88.5l176 -178q-88 -97 -195.5 -149t-261.5 -52q-121 0 -228 45t-182 122t-118 182.5t-43 222.5q0 156 73 286t206 207.5t297 77.5q251 0 425 -174l-161 -190q-110 104 -267 104q-92 0 -161 -56.5
t-97 -148.5h381z" />
    <glyph glyph-name="afii10102" unicode="&#x455;" horiz-adv-x="1028" 
d="M524 -20q-121 0 -243.5 41t-227.5 124l133 205q181 -131 346 -131q132 0 132 86q0 11 -3.5 21t-11.5 18.5t-16.5 15.5t-24 14t-27.5 12t-32.5 12t-34.5 11t-38.5 11.5t-39.5 11.5q-54 16 -94 31.5t-86.5 43t-76.5 61t-50 84.5t-20 114q0 162 114.5 255t286.5 93
q104 0 212.5 -33.5t197.5 -93.5l-119 -215q-176 102 -297 102q-56 0 -85.5 -21.5t-29.5 -57.5q0 -26 28.5 -48.5t63 -36t98.5 -35.5q7 -2 11 -3.5t10.5 -3.5t11.5 -4q45 -15 78.5 -28.5t75.5 -34t70.5 -45t55 -56.5t39.5 -74t13 -92q0 -175 -116 -264.5t-304 -89.5z" />
    <glyph glyph-name="afii10103" unicode="&#x456;" horiz-adv-x="618" 
d="M145 1219v276h328v-276h-328zM154 0v1098h311v-1098h-311z" />
    <glyph glyph-name="afii10104" unicode="&#x457;" horiz-adv-x="618" 
d="M379 1219v276h299v-276h-299zM-59 1219v276h299v-276h-299zM154 0v1098h311v-1098h-311z" />
    <glyph glyph-name="afii10105" unicode="&#x458;" horiz-adv-x="618" 
d="M145 1219v276h328v-276h-328zM113 -334q-71 0 -136 12v244q37 -6 66 -6q111 0 111 127v1055h311v-1080q0 -352 -352 -352z" />
    <glyph glyph-name="afii10106" unicode="&#x459;" horiz-adv-x="1855" 
d="M842 0v831h-279q0 -181 -10 -314.5t-33 -227t-53.5 -152.5t-78 -92t-99.5 -45t-125 -12q-95 0 -158 18l21 252q36 -6 65 -6q40 0 64 13t48.5 60.5t37 138.5t20.5 247.5t8 386.5h883v-363h225q199 0 319 -92t120 -270q0 -174 -112 -273.5t-310 -99.5h-553zM1348 500h-195
v-254h197q153 0 153 131q0 58 -40 90.5t-115 32.5z" />
    <glyph glyph-name="afii10107" unicode="&#x45a;" horiz-adv-x="1847" 
d="M834 0v483h-383v-483h-312v1098h312v-379h383v379h311v-379h225q130 0 226.5 -37t154 -118.5t57.5 -201.5q0 -172 -111.5 -267t-310.5 -95h-552zM1339 483h-194v-237h196q154 0 154 121q0 116 -156 116z" />
    <glyph glyph-name="afii10108" unicode="&#x45b;" horiz-adv-x="1275" 
d="M4 1346h135v149h312v-149h319v-218h-319v-268q64 82 138.5 129t182.5 47q176 0 274.5 -108.5t98.5 -298.5v-629h-311v530q0 109 -49.5 166.5t-139.5 57.5q-91 0 -142.5 -57.5t-51.5 -166.5v-530h-312v1128h-135v218z" />
    <glyph glyph-name="afii10109" unicode="&#x45c;" horiz-adv-x="1251" 
d="M139 0v1098h312v-451l393 451h358l-403 -451l454 -647h-368l-293 418l-141 -154v-264h-312zM477 1219l232 362l268 -117l-262 -245h-238z" />
    <glyph glyph-name="afii10110" unicode="&#x45e;" horiz-adv-x="1228" 
d="M401 -334q-147 0 -276 76l104 225q71 -43 133 -43q40 0 64.5 15.5t44.5 56.5l-430 1102h330l250 -748l239 748h324l-422 -1125q-64 -169 -143.5 -238t-217.5 -69zM618 1202q-141 0 -231.5 81.5t-112.5 229.5l183 33q44 -137 161 -137q118 0 162 137l183 -33
q-22 -147 -113 -229t-232 -82z" />
    <glyph glyph-name="afii10193" unicode="&#x45f;" horiz-adv-x="1275" 
d="M496 -258v258h-357v1098h312v-832h374v832h312v-1098h-349v-258h-292z" />
    <glyph glyph-name="afii10050" unicode="&#x490;" horiz-adv-x="1224" 
d="M1174 1149h-687v-1149h-315v1434h698v299h263z" />
    <glyph glyph-name="afii10098" unicode="&#x491;" horiz-adv-x="970" 
d="M940 831h-489v-831h-312v1098h502v258h262z" />
    <glyph glyph-name="endash" unicode="&#x2013;" horiz-adv-x="1081" 
d="M102 489v291h877v-291h-877z" />
    <glyph glyph-name="emdash" unicode="&#x2014;" horiz-adv-x="1839" 
d="M102 489v291h1635v-291h-1635z" />
    <glyph glyph-name="quoteleft" unicode="&#x2018;" horiz-adv-x="585" 
d="M117 784v277q0 197 95.5 288.5t283.5 94.5l26 -129q-105 -10 -156.5 -62.5t-43.5 -140.5h127v-328h-332z" />
    <glyph glyph-name="quoteright" unicode="&#x2019;" horiz-adv-x="585" 
d="M90 774l-27 129q105 10 157 62.5t44 140.5h-127v328h332v-277q0 -197 -95.5 -288.5t-283.5 -94.5z" />
    <glyph glyph-name="quotesinglbase" unicode="&#x201a;" horiz-adv-x="585" 
d="M80 -332l-27 129q105 10 157 62.5t44 140.5h-127v328h332v-277q0 -197 -95.5 -288.5t-283.5 -94.5z" />
    <glyph glyph-name="quotedblleft" unicode="&#x201c;" horiz-adv-x="1105" 
d="M637 784v277q0 197 95.5 288.5t283.5 94.5l26 -129q-105 -10 -156.5 -62.5t-43.5 -140.5h127v-328h-332zM117 784v277q0 197 95.5 288.5t283.5 94.5l26 -129q-105 -10 -156.5 -62.5t-43.5 -140.5h127v-328h-332z" />
    <glyph glyph-name="quotedblright" unicode="&#x201d;" horiz-adv-x="1105" 
d="M610 774l-26 129q105 10 156.5 62.5t43.5 140.5h-127v328h332v-277q0 -197 -95.5 -288.5t-283.5 -94.5zM90 774l-27 129q105 10 157 62.5t44 140.5h-127v328h332v-277q0 -197 -95.5 -288.5t-283.5 -94.5z" />
    <glyph glyph-name="quotedblbase" unicode="&#x201e;" horiz-adv-x="1105" 
d="M600 -332l-27 129q105 10 157 62.5t44 140.5h-127v328h332v-277q0 -197 -95.5 -288.5t-283.5 -94.5zM80 -332l-27 129q105 10 157 62.5t44 140.5h-127v328h332v-277q0 -197 -95.5 -288.5t-283.5 -94.5z" />
    <glyph glyph-name="dagger" unicode="&#x2020;" horiz-adv-x="839" 
d="M334 487l20 553l-245 -20v170l243 -21l-26 265h188l-27 -265l244 21v-170l-246 20l21 -553h-172z" />
    <glyph glyph-name="daggerdbl" unicode="&#x2021;" horiz-adv-x="880" 
d="M346 0l27 264l-244 -20v170l244 -21l-19 324l19 323l-244 -20v170l244 -21l-27 265h189l-27 -265l244 21v-170l-244 20l18 -323l-18 -324l244 21v-170l-244 20l27 -264h-189z" />
    <glyph glyph-name="bullet" unicode="&#x2022;" 
d="M512 416q-126 0 -215.5 88.5t-89.5 214.5v4q0 126 89.5 214.5t215.5 88.5t215.5 -88.5t89.5 -214.5v-4q0 -126 -89.5 -214.5t-215.5 -88.5z" />
    <glyph glyph-name="ellipsis" unicode="&#x2026;" horiz-adv-x="1720" 
d="M1270 0v319h323v-319h-323zM698 0v319h324v-319h-324zM127 0v319h324v-319h-324z" />
    <glyph glyph-name="perthousand" unicode="&#x2030;" horiz-adv-x="2539" 
d="M438 717q-153 0 -249.5 104t-96.5 258v4q0 155 98 261t252 106q153 0 249.5 -104.5t96.5 -258.5v-4q0 -154 -98 -260t-252 -106zM236 0l1046 1434h244l-1047 -1434h-243zM2097 -16q-153 0 -249.5 104t-96.5 258v4q0 155 98 261t252 106q153 0 249.5 -104.5t96.5 -258.5
v-4q0 -154 -98 -260t-252 -106zM1319 -16q-153 0 -249.5 104t-96.5 258v4q0 155 98 261t252 106q153 0 249.5 -104.5t96.5 -258.5v-4q0 -154 -98 -260t-252 -106zM442 903q62 0 96.5 51.5t34.5 124.5v4q0 75 -37.5 128t-97.5 53q-62 0 -96.5 -51t-34.5 -126v-4
q0 -74 37.5 -127t97.5 -53zM2101 170q62 0 96.5 51.5t34.5 124.5v4q0 74 -37.5 127t-97.5 53q-62 0 -96.5 -50.5t-34.5 -125.5v-4q0 -74 37.5 -127t97.5 -53zM1323 170q62 0 96.5 51.5t34.5 124.5v4q0 74 -37.5 127t-97.5 53q-62 0 -96.5 -50.5t-34.5 -125.5v-4
q0 -74 37.5 -127t97.5 -53z" />
    <glyph glyph-name="guilsinglleft" unicode="&#x2039;" horiz-adv-x="763" 
d="M428 82l-344 459v16l344 459l238 -115l-267 -350l267 -350z" />
    <glyph glyph-name="guilsinglright" unicode="&#x203a;" horiz-adv-x="763" 
d="M336 82l-238 115l267 350l-267 350l238 119l344 -459v-16z" />
    <glyph glyph-name="fraction" unicode="&#x2044;" horiz-adv-x="983" 
d="M-145 -201l954 1753h274l-954 -1753h-274z" />
    <glyph glyph-name="Euro" unicode="&#x20ac;" horiz-adv-x="1474" 
d="M895 -25q-229 0 -386.5 126.5t-219.5 342.5h-189v207h154q-2 20 -2 66q0 49 2 74h-154v206h193q65 209 221 335t375 126q122 0 219.5 -35.5t161.5 -90t123 -136.5l-238 -180q-62 83 -124.5 122.5t-147.5 39.5q-179 0 -262 -181h378v-206h-426q-2 -23 -2 -74q0 -46 2 -66
h426v-207h-381q82 -188 277 -188q84 0 143.5 39t132.5 129l226 -166q-98 -138 -216.5 -210.5t-285.5 -72.5z" />
    <glyph glyph-name="afii61352" unicode="&#x2116;" horiz-adv-x="2172" 
d="M127 0v1434h295l559 -869v869h326v-1434h-273l-581 893v-893h-326zM1477 254v186h548v-186h-548zM1749 543q-134 0 -223.5 90t-89.5 223q0 132 91 223.5t226 91.5q134 0 223.5 -90t89.5 -223q0 -132 -91 -223.5t-226 -91.5zM1753 707q58 0 93.5 43t35.5 106t-37 107.5
t-96 44.5q-58 0 -93.5 -43.5t-35.5 -106.5t37 -107t96 -44z" />
    <glyph glyph-name="published" unicode="&#x2117;" horiz-adv-x="1699" 
d="M848 -25q-153 0 -290.5 59t-235.5 158.5t-155.5 235.5t-57.5 285v4q0 149 58 285.5t157 236.5t237 159.5t291 59.5t290.5 -59t235.5 -158t155.5 -235t57.5 -285v-4q0 -149 -58 -285.5t-157 -237t-237 -160t-291 -59.5zM848 57q138 0 260.5 52.5t209 141.5t137 210.5
t50.5 255.5v4q0 179 -84.5 329t-235 238t-333.5 88q-138 0 -260.5 -52.5t-209 -141t-137 -210t-50.5 -255.5v-4q0 -134 50 -255t136 -209t208 -140t259 -52zM578 336v788h323q140 0 221.5 -74.5t81.5 -197.5v-4q0 -130 -90.5 -202.5t-228.5 -72.5h-131v-237h-176zM754 727
h135q63 0 100 33.5t37 85.5v4q0 56 -38 87.5t-103 31.5h-131v-242z" />
    <glyph glyph-name="trademark" unicode="&#x2122;" horiz-adv-x="1413" 
d="M707 803v631h151l166 -267l166 267h147v-631h-135v426l-174 -277h-12l-174 277v-426h-135zM242 803v504h-189v127h520v-127h-188v-504h-143z" />
    <glyph glyph-name="partialdiff" unicode="&#x2202;" 
d="M0 0v1434h1024v-1434h-1024zM166 100h694l-348 523zM100 197l351 520l-351 520v-1040zM922 197v1040l-351 -520zM512 809l348 522h-694z" />
    <glyph glyph-name="Delta" unicode="&#x2206;" horiz-adv-x="1167" 
d="M1516 0h-1481l594 1434h293zM778 1020l-286 -741h575z" />
    <glyph glyph-name="product" unicode="&#x220f;" 
d="M0 0v1434h1024v-1434h-1024zM166 100h694l-348 523zM100 197l351 520l-351 520v-1040zM922 197v1040l-351 -520zM512 809l348 522h-694z" />
    <glyph glyph-name="summation" unicode="&#x2211;" 
d="M0 0v1434h1024v-1434h-1024zM166 100h694l-348 523zM100 197l351 520l-351 520v-1040zM922 197v1040l-351 -520zM512 809l348 522h-694z" />
    <glyph glyph-name="minus" unicode="&#x2212;" horiz-adv-x="1310" 
d="M1141 578h-971v286h971v-286z" />
    <glyph glyph-name="radical" unicode="&#x221a;" horiz-adv-x="1239" 
d="M168 473h-219v201h344l231 -447l590 1407h229l-796 -1896z" />
    <glyph glyph-name="infinity" unicode="&#x221e;" horiz-adv-x="1769" 
d="M492 299q-184 0 -292 120t-108 306q0 183 105 299.5t286 116.5q68 0 126 -18.5t107 -56.5t86.5 -77.5t82.5 -99.5q46 60 82.5 99.5t86 77.5t107 56.5t125.5 18.5q181 0 286 -116.5t105 -299.5q0 -185 -105.5 -305.5t-287.5 -120.5q-120 0 -214 63.5t-185 176.5
q-46 -56 -82.5 -93t-85.5 -74t-105 -55t-120 -18zM489 555q119 0 248 166q-52 68 -118 117t-134 49t-109.5 -48t-41.5 -118q0 -73 41.5 -119.5t113.5 -46.5zM1284 555q71 0 111.5 47t40.5 119t-43 119t-115 47q-119 0 -246 -166q130 -166 252 -166z" />
    <glyph glyph-name="integral" unicode="&#x222b;" 
d="M0 0v1434h1024v-1434h-1024zM166 100h694l-348 523zM100 197l351 520l-351 520v-1040zM922 197v1040l-351 -520zM512 809l348 522h-694z" />
    <glyph glyph-name="approxequal" unicode="&#x2248;" horiz-adv-x="1310" 
d="M307 788l-155 43q72 316 299 316q61 0 218.5 -40t186.5 -40q116 0 154 96l157 -43q-72 -315 -299 -315q-61 0 -219.5 40t-187.5 40q-50 0 -91.5 -24t-62.5 -73zM307 268l-155 43q72 316 299 316q61 0 218.5 -40t186.5 -40q116 0 154 96l157 -43q-72 -315 -299 -315
q-61 0 -219.5 40t-187.5 40q-50 0 -91.5 -24t-62.5 -73z" />
    <glyph glyph-name="notequal" unicode="&#x2260;" horiz-adv-x="1310" 
d="M162 846v278h655l139 211h195l-139 -211h135v-278h-318l-163 -250h481v-279h-662l-145 -219h-195l144 219h-127v279h309l164 250h-473z" />
    <glyph glyph-name="lessequal" unicode="&#x2264;" horiz-adv-x="1310" 
d="M1153 373l-989 340v288l989 340v-297l-694 -186l694 -188v-297zM162 35v264h993v-264h-993z" />
    <glyph glyph-name="greaterequal" unicode="&#x2265;" horiz-adv-x="1310" 
d="M1153 713l-989 -340v297l694 188l-694 186v297l989 -340v-288zM1155 299v-264h-993v264h993z" />
    <glyph glyph-name="lozenge" unicode="&#x25ca;" horiz-adv-x="1310" 
d="M1174 729l-390 -801h-262l-385 801l387 801h260zM879 729l-224 510l-223 -510l223 -512z" />
    <glyph glyph-name="cyrBreve" unicode="&#xf6d1;" 
d="M508 1214q-141 0 -231.5 82t-112.5 230l182 33q44 -138 162 -138t162 138l182 -33q-22 -148 -112.5 -230t-231.5 -82z" />
    <glyph glyph-name="cyrbreve" unicode="&#xf6d4;" 
d="M508 1202q-141 0 -231.5 81.5t-112.5 229.5l182 33q44 -137 162 -137t162 137l182 -33q-22 -148 -112.5 -229.5t-231.5 -81.5z" />
    <glyph glyph-name="ff" unicode="&#xfb00;" horiz-adv-x="1564" 
d="M975 0v831h-129v256h129v70q0 178 88 266q86 86 252 86q126 0 221 -30v-258q-73 26 -141 26q-113 0 -113 -119v-43h252v-254h-248v-831h-311zM193 0v831h-130v256h130v70q0 178 88 266q86 86 251 86q127 0 222 -30v-258q-73 26 -142 26q-112 0 -112 -119v-43h252v-254
h-248v-831h-311z" />
    <glyph glyph-name="uni00A0" horiz-adv-x="614" 
 />
    <glyph glyph-name="apple" 
d="M0 0v1434h1024v-1434h-1024zM166 100h694l-348 523zM100 197l351 520l-351 520v-1040zM922 197v1040l-351 -520zM512 809l348 522h-694z" />
    </font>
</defs>
</svg>
